Loading...
Error

Телохранитель (1-3 сезоны: 1-36 серии из 36) (Андрей Джунковский, Влад Фурман) [2006-2010 г., детектив, криминал, боевик, DVDRip]

Статистика раздачи
Размер:  22,72 GB   |    Зарегистрирован:  2 года 1 месяц   |    Скачан:  7 раз

Полного источника не было: 3 месяца 21 день

Сидов:  0  |  0 KB/s  ]   Личеров:  0  |  0 KB/s  ]

* - сиды/пиры с внешних источников

   
 
Автор Сообщение

nemos Пол:Муж

24-Окт-2014 19:35





Год выпуска: 2006-2010 / в каждом сезоне по 12 серий.
Жанр: Детектив, криминал, боевик
Страна: Россия
Режиссер: Андрей Джунковский, Влад Фурман
В ролях: Эдуард Трухменев, Кирилл Сафонов, Наталья Швец, Сергей Угрюмов, Юлия Галкина, Юрий Цурило, Игорь Арташонов, Константин Соловьёв, Николай Шрайбер, Марина Коняшкина, Виктория Полторак, Олег Доброван, Ольга Смирнова (II), Олег Васильков, Александр Цуркан, Тагир Рахимов, Анна Антонова, Вячеслав Шихалеев, Сергей Барышев, Анна Уколова, Алексей Эйбоженко мл., Антон Ескин, Дмитрий Горевой, Александр Горшков, Сергей Беляев, Мария Зорина, Иван Агапов, Сергей Шеховцов, Александр Казаков, Никита Прозоровский-Семёнов, Тихон Бузников, Шамиль Хаматов, Галина Боб, Константин Юшкевич, Александр Клюквин, Ольга Тумайкина
Качество видео: DVDRip

Продолжительность: сезон-1: 00:46:29 , сезон-2: 00:44:38 , сезон-3: 00:44:58 серия
Формат: AVI
Видео: XviD / сезон-1: 704x528 , сезон-2: 704x400 , сезон-3: 704x400 / сезон-1: 1439 kbps , сезон-2: 2085 kbps , сезон-3: 1986 kbps
Аудио: русский / сезон-1: MP3 2.0, 192 kbps ,
сезон-2: MP3 2.0, 128 kbps , сезон-3: MP3 2.0, 128 kbps


Герои сериала — телохранители, работающие в частном охранном агентстве «Группа-Р». Находясь день и ночь рядом с людьми, доверившими им жизнь свою и своих близких, им приходится скрупулезно изучать жизнь клиента, чтобы устранить угрожающую ему опасность.

Код:

D:\Фильмы Раздача-1\Telohranitel.1-3.sezon.(36.serij.iz.36)XviD.DVDRip\Telohranitel.(12.serija.iz.12)XviD.DVDRip\Telohranitel.(12.serija.iz.12)XviD.DVDRip.avi
   General
      Complete name : D:\Фильмы Раздача-1\Telohranitel.1-3.sezon.(36.serij.iz.36)XviD.DVDRip\Telohranitel.(12.serija.iz.12)XviD.DVDRip\Telohranitel.(12.serija.iz.12)XviD.DVDRip.avi
      Format : AVI
      Format/Info : Audio Video Interleave
      File size : 546 MiB
      Duration : 46mn 29s
      Overall bit rate : 1 641 Kbps
      Writing application : VirtualDubMod 1.5.10.3 | www.virtualdub-fr.org || (build 2550/release)
      Writing library : VirtualDubMod build 2550/release
   Video #0
      ID : 0
      Format : MPEG-4 Visual
      Format profile : Advanced Simple@L5
      Format settings, BVOP : 1
      Format settings, QPel : No
      Format settings, GMC : No warppoints
      Format settings, Matrix : Custom
      Codec ID : XVID
      Codec ID/Hint : XviD
      Duration : 46mn 29s
      Bit rate : 1 439 Kbps
      Width : 704 pixels
      Height : 528 pixels
      Display aspect ratio : 4:3
      Frame rate : 25.000 fps
      Color space : YUV
      Chroma subsampling : 4:2:0
      Bit depth : 8 bits
      Scan type : Progressive
      Compression mode : Lossy
      Bits/(Pixel*Frame) : 0.155
      Stream size : 479 MiB (88%)
      Writing library : XviD 1.2.1 (UTC 2008-12-04)
   Audio #1
      ID : 1
      Format : MPEG Audio
      Format version : Version 1
      Format profile : Layer 3
      Mode : Joint stereo
      Mode extension : MS Stereo
      Codec ID : 55
      Codec ID/Hint : MP3
      Duration : 46mn 29s
      Bit rate mode : Constant
      Bit rate : 192 Kbps
      Channel(s) : 2 channels
      Sampling rate : 48.0 KHz
      Compression mode : Lossy
      Stream size : 63.8 MiB (12%)
      Alignment : Aligned on interleaves
      Interleave, duration : 40 ms (1.00 video frame)
      Interleave, preload duration : 504 ms
      Writing library : LAME3.98r
      Encoding settings : -m j -V 4 -q 2 -lowpass 18.6 -b 192

Код:

D:\Фильмы Раздача-1\Telohranitel.1-3.sezon.(36.serij.iz.36)XviD.DVDRip\Telohranitel.2.(12.serija.iz.12)XviD.DVDRip\Telohranitel.2.(12.serija.iz.12)XviD.DVDRip.avi
   General
      Complete name : D:\Фильмы Раздача-1\Telohranitel.1-3.sezon.(36.serij.iz.36)XviD.DVDRip\Telohranitel.2.(12.serija.iz.12)XviD.DVDRip\Telohranitel.2.(12.serija.iz.12)XviD.DVDRip.avi
      Format : AVI
      Format/Info : Audio Video Interleave
      File size : 710 MiB
      Duration : 44mn 38s
      Overall bit rate : 2 223 Kbps
      Writing library : VirtualDub-MPEG2 build 24600/release
   Video #0
      ID : 0
      Format : MPEG-4 Visual
      Format profile : Simple@L2
      Format settings, BVOP : No
      Format settings, QPel : No
      Format settings, GMC : No warppoints
      Format settings, Matrix : Default (H.263)
      Codec ID : XVID
      Codec ID/Hint : XviD
      Duration : 44mn 38s
      Bit rate : 2 085 Kbps
      Width : 704 pixels
      Height : 400 pixels
      Display aspect ratio : 16:9
      Frame rate : 25.000 fps
      Color space : YUV
      Chroma subsampling : 4:2:0
      Bit depth : 8 bits
      Scan type : Progressive
      Compression mode : Lossy
      Bits/(Pixel*Frame) : 0.296
      Stream size : 666 MiB (94%)
      Writing library : XviD 1.1.2 (UTC 2006-11-01)
   Audio #1
      ID : 1
      Format : MPEG Audio
      Format version : Version 1
      Format profile : Layer 3
      Mode : Joint stereo
      Mode extension : MS Stereo
      Codec ID : 55
      Codec ID/Hint : MP3
      Duration : 44mn 38s
      Bit rate mode : Constant
      Bit rate : 128 Kbps
      Channel(s) : 2 channels
      Sampling rate : 48.0 KHz
      Compression mode : Lossy
      Stream size : 40.9 MiB (6%)
      Alignment : Split accross interleaves
      Interleave, duration : 40 ms (1.00 video frame)
      Interleave, preload duration : 500 ms

Код:

D:\Фильмы Раздача-1\Telohranitel.1-3.sezon.(36.serij.iz.36)XviD.DVDRip\Telohranitel.3.(12.serija.iz.12)XviD.DVDRip\Telohranitel.3.(12.serija.iz.12)XviD.DVDRip.avi
   General
      Complete name : D:\Фильмы Раздача-1\Telohranitel.1-3.sezon.(36.serij.iz.36)XviD.DVDRip\Telohranitel.3.(12.serija.iz.12)XviD.DVDRip\Telohranitel.3.(12.serija.iz.12)XviD.DVDRip.avi
      Format : AVI
      Format/Info : Audio Video Interleave
      File size : 683 MiB
      Duration : 44mn 58s
      Overall bit rate : 2 123 Kbps
      Writing library : VirtualDub-MPEG2 build 24600/release
   Video #0
      ID : 0
      Format : MPEG-4 Visual
      Format profile : Simple@L2
      Format settings, BVOP : No
      Format settings, QPel : No
      Format settings, GMC : No warppoints
      Format settings, Matrix : Default (H.263)
      Codec ID : XVID
      Codec ID/Hint : XviD
      Duration : 44mn 58s
      Bit rate : 1 986 Kbps
      Width : 704 pixels
      Height : 400 pixels
      Display aspect ratio : 16:9
      Frame rate : 25.000 fps
      Color space : YUV
      Chroma subsampling : 4:2:0
      Bit depth : 8 bits
      Scan type : Progressive
      Compression mode : Lossy
      Bits/(Pixel*Frame) : 0.282
      Stream size : 639 MiB (94%)
      Writing library : XviD 1.1.2 (UTC 2006-11-01)
   Audio #1
      ID : 1
      Format : MPEG Audio
      Format version : Version 1
      Format profile : Layer 3
      Mode : Joint stereo
      Mode extension : MS Stereo
      Codec ID : 55
      Codec ID/Hint : MP3
      Duration : 44mn 58s
      Bit rate mode : Constant
      Bit rate : 128 Kbps
      Channel(s) : 2 channels
      Sampling rate : 48.0 KHz
      Compression mode : Lossy
      Stream size : 41.2 MiB (6%)
      Alignment : Split accross interleaves
      Interleave, duration : 40 ms (1.00 video frame)
      Interleave, preload duration : 500 ms
Скриншоты:сезон-1
picpicpicpicpic
Скриншоты:сезон-2
picpicpicpicpic
Скриншоты:сезон-3
picpicpicpicpic

Этот торрент недоступен для скачивания без регистрации, однако доступен по публичной magnet-ссылке (источники с публичных трекеров). Перед использованием ссылки прочтите, пожалуйста Пользовательское соглашение, а также как можно дольше оставайтесь на раздаче! Для того, чтобы скачать сам торрент-файл (который видит больше источников), а также для того, чтобы поблагодарить релизера, вам необходимо зарегистрироваться. Если регистрироваться лень - вы можете также попробовать скачать релиз по нашим партнерским ссылкам ниже.

[underverse.su].t45481.torrent
Трекер: Зарегистрирован   [ 24.10.2014 19:35 ]  

Статус: проверено (by nemos at 24.10.2014 19:43)
Поблагодарили: 3 человека
Тип торрента: публичный - доступные источники с открытых трекеров: 
Размер: 22,72 GB (занимает 5,19 DVDR, для записи нужно 6 болванок DVDR/RW)
 
 
Похожие темы
Форум Тема Автор Торрент Отв. Посл. сооб.
Зарубежное кино [DVDRip, Low-Res HDRip, и т.д.] Телохранитель / London Boulevard (Уильям Монахэн) [2010 г., драма, криминал, BDRip] Dub + Original garry
3 | 0

0 | 397

12

18.12.2012 19:42

T Зарубежное кино [DVDRip, Low-Res HDRip, и т.д.] Телохранитель / Maryland (Алис Винокур) [2015 г., триллер, драма, HDRip] MVO makkol
233 | 6

0 | 579

44

14.02.2016 21:43

xUSSR сериалы Телохранитель 4 / серии: 1-16 (16) (Валерий Игнатьев) [2012 г., детектив, криминал, боевик, SATRip] nemos
0 | 0

0 | 859

8

26.11.2012 16:25

xUSSR сериалы Телохранитель (1-4 серии из 4) (Александр Калугин) [ 2014 г., боевик, SatRip] nemos
2 | 0

1 | 584

20

24.10.2014 17:39

Зарубежное кино [DVD / HDDVD / BD / Remux] Телохранитель / London Boulevard (Уильям Монахэн) [2010 г., мелодрама, криминальный, DVD-9] SKRiptus
0 | 0

1 | 1353

3

02.03.2011 13:38

T Зарубежное кино [HDDVDRip / BDRip / WEB-DL / HDTV 1080/720р] Телохранитель / Maryland (Алис Винокур) [2015 г., триллер, драма, BDRip 1080p] MVO + Original makkol
3 | 0

0 | 635

29

14.02.2016 21:50

T Зарубежное кино [HDDVDRip / BDRip / WEB-DL / HDTV 1080/720р] Телохранитель / Maryland (Алис Винокур / Alice Winocour) [2015 г., триллер, драма, BDRip 720p] MVO (iTunes) + Original (Fre) 90ytr90
19 | 1

0 | 572

11

17.02.2016 07:08

Архив Телохранитель / The Bodyguard (Мик Джексон) [1992 г., триллер, мело, драма, DVDRip] Saggitarius
0 | 0

1 | 960

2

05.11.2011 14:44

Архив Телохранитель / The Bodyguard (Мик Джексон /Mick Jackson) [1992 г., триллер, мелодрамма, DVD-9] Dmitriy
0 | 0

6 | 1887

14

17.02.2011 14:46



Последний раз редактировалось: nemos (06.11.2014 06:29), всего редактировалось 2 раз(а)

Ведьмочка Пол:Жен

24-Окт-2014 20:22


Яндекс.Метрика powered by Sphinx


В Н И М А Н И Е
Сайт не распространяет и не хранит электронные версии произведений, а лишь бесплатно и без коммерческой выгоды (не требуя взамен платы,
SMS и т.д.) предоставляет доступ к создаваемому пользователями каталогу ссылок на торрент-файлы, которые содержат только списки хеш-сумм.
Убедительная просьба с жалобами обращаться напрямую к пользователю, разместившему торрент файл.

Вверх