Loading...
Error

Телохранитель (1-4 серии из 4) (Александр Калугин) [ 2014 г., боевик, SatRip]

Статистика раздачи
Размер:  2,4 GB   |    Зарегистрирован:  2 года 1 месяц   |    Скачан:  20 раз

Полного источника не было: 6 месяцев

Сидов:  0  |  0 KB/s  ]   Личеров:  0  |  0 KB/s  ]

* - сиды/пиры с внешних источников

   
 
Автор Сообщение

nemos Пол:Муж

24-Окт-2014 17:31





Год выпуска: премьера (РФ) 24 октября 2014
Жанр: боевик
Страна: Россия
Режиссер: Александр Калугин
В ролях: Евгений Сидихин, Олег Гущин, Любовь Соколинская, Дмитрий Мазуров, Дмитрий Проданов, Николай Качура, Константин Адаев, Максим Башкин, Дмитрий Варшавский, Юрий Осипов, Борис Эстрин

Качество видео: SatRip

Продолжительность: 00:42:02 серия
Формат: AVI
Видео: XviD, 720x448, 1797 kbps
Аудио: русский, MP3 2.0, 128 kbps




Жизнь Александра Соколова, в прошлом - олимпийского чемпиона по боксу, пошла под откос после трагической гибели жены и 15-летней дочери в автокатастрофе, произошедшей по его вине. Александр устроился озеленителем на кладбище, где похоронены его жена и дочь. Там его находит Олег Морозов, в прошлом тоже боксер, а теперь крупный бизнесмен и ресторатор, помнит кумира своей молодости и приглашает его на работу в свой ресторан швейцаром. Вскоре из Лондона приезжает 20-летняя дочь Морозова Настя, а у него самого начинаются серьезные проблемы. После долгих скитаний по лагерям в Москву возвращается его бывший компаньон из лихих 90-х, Коля Подольский, и требует половину уже серьезного бизнеса. За отказ он организует на Морозова с дочерью покушение, и только вмешательство Соколова спасает Настю. Так Александр становится ее телохранителем и постепенно искренне привязывается к ней. Но беда не заставляет себя ждать: Морозова вновь пытаются убить, а Настю похищают...

Код:

D:\Фильмы Раздача-1\Телохранитель.2014.SATRip\Телохранитель.04.avi
   General
      Complete name : D:\Фильмы Раздача-1\Телохранитель.2014.SATRip\Телохранитель.04.avi
      Format : AVI
      Format/Info : Audio Video Interleave
      File size : 609 MiB
      Duration : 44mn 2s
      Overall bit rate : 1 934 Kbps
      Writing application : VirtualDubMod 1.5.10.2 (build 2540/release)
      Writing library : VirtualDub build 29808/release
   Video #0
      ID : 0
      Format : MPEG-4 Visual
      Format profile : Advanced Simple@L5
      Format settings, BVOP : 2
      Format settings, QPel : No
      Format settings, GMC : No warppoints
      Format settings, Matrix : Default (H.263)
      Muxing mode : Packed bitstream
      Codec ID : XVID
      Codec ID/Hint : XviD
      Duration : 44mn 2s
      Bit rate : 1 797 Kbps
      Width : 720 pixels
      Height : 448 pixels
      Display aspect ratio : 1.607
      Frame rate : 25.000 fps
      Color space : YUV
      Chroma subsampling : 4:2:0
      Bit depth : 8 bits
      Scan type : Progressive
      Compression mode : Lossy
      Bits/(Pixel*Frame) : 0.223
      Stream size : 566 MiB (93%)
      Writing library : XviD 65
   Audio #1
      ID : 1
      Format : MPEG Audio
      Format version : Version 1
      Format profile : Layer 3
      Mode : Joint stereo
      Mode extension : MS Stereo
      Codec ID : 55
      Codec ID/Hint : MP3
      Duration : 44mn 2s
      Bit rate mode : Constant
      Bit rate : 128 Kbps
      Channel(s) : 2 channels
      Sampling rate : 48.0 KHz
      Compression mode : Lossy
      Stream size : 40.3 MiB (7%)
      Alignment : Aligned on interleaves
      Interleave, duration : 40 ms (1.00 video frame)
      Interleave, preload duration : 504 ms
Семпл: http://multi-up.com/1008288

picpicpicpicpicpicpicpicpicpicpicpicpicpicpicpicpicpicpicpicpicpicpicpicpicpicpicpicpic
Для увеличения картинки щелкните мышкой по превью

Этот торрент недоступен для скачивания без регистрации, однако доступен по публичной magnet-ссылке (источники с публичных трекеров). Перед использованием ссылки прочтите, пожалуйста Пользовательское соглашение, а также как можно дольше оставайтесь на раздаче! Для того, чтобы скачать сам торрент-файл (который видит больше источников), а также для того, чтобы поблагодарить релизера, вам необходимо зарегистрироваться. Если регистрироваться лень - вы можете также попробовать скачать релиз по нашим партнерским ссылкам ниже.

[underverse.su].t45478.torrent
Трекер: Зарегистрирован   [ 24.10.2014 17:31 ]  

Статус: проверено (by nemos at 24.10.2014 17:36)
Поблагодарили: 1 человек
Тип торрента: публичный - доступные источники с открытых трекеров: 
Размер: 2,4 GB (занимает 0,55 DVDR, для записи нужно 1 болванка DVDR/RW)
 
 
Похожие темы
Форум Тема Автор Торрент Отв. Посл. сооб.
Зарубежное кино [DVDRip, Low-Res HDRip, и т.д.] Телохранитель / London Boulevard (Уильям Монахэн) [2010 г., драма, криминал, BDRip] Dub + Original garry
3 | 0

0 | 397

12

18.12.2012 19:42

T Зарубежное кино [DVDRip, Low-Res HDRip, и т.д.] Телохранитель / Maryland (Алис Винокур) [2015 г., триллер, драма, HDRip] MVO makkol
233 | 6

0 | 579

44

14.02.2016 21:43

xUSSR сериалы Телохранитель 4 / серии: 1-16 (16) (Валерий Игнатьев) [2012 г., детектив, криминал, боевик, SATRip] nemos
0 | 0

0 | 858

8

26.11.2012 16:25

xUSSR сериалы Телохранитель (1-3 сезоны: 1-36 серии из 36) (Андрей Джунковский, Влад Фурман) [2006-2010 г., детектив, криминал, боевик, DVDRip] nemos
0 | 0

1 | 918

7

24.10.2014 20:22

Зарубежное кино [DVD / HDDVD / BD / Remux] Телохранитель / London Boulevard (Уильям Монахэн) [2010 г., мелодрама, криминальный, DVD-9] SKRiptus
0 | 0

1 | 1353

3

02.03.2011 13:38

T Зарубежное кино [HDDVDRip / BDRip / WEB-DL / HDTV 1080/720р] Телохранитель / Maryland (Алис Винокур) [2015 г., триллер, драма, BDRip 1080p] MVO + Original makkol
3 | 0

0 | 632

29

14.02.2016 21:50

T Зарубежное кино [HDDVDRip / BDRip / WEB-DL / HDTV 1080/720р] Телохранитель / Maryland (Алис Винокур / Alice Winocour) [2015 г., триллер, драма, BDRip 720p] MVO (iTunes) + Original (Fre) 90ytr90
19 | 1

0 | 571

11

17.02.2016 07:08

Архив Телохранитель / The Bodyguard (Мик Джексон) [1992 г., триллер, мело, драма, DVDRip] Saggitarius
0 | 0

1 | 960

2

05.11.2011 14:44

Архив Телохранитель / The Bodyguard (Мик Джексон /Mick Jackson) [1992 г., триллер, мелодрамма, DVD-9] Dmitriy
0 | 0

6 | 1884

14

17.02.2011 14:46



Последний раз редактировалось: nemos (24.10.2014 17:49), всего редактировалось 1 раз

viktor.r-79 Пол:Муж

24-Окт-2014 17:39

ну вот и весь фильм в скриншотах просмотрели :)

Яндекс.Метрика powered by Sphinx


В Н И М А Н И Е
Сайт не распространяет и не хранит электронные версии произведений, а лишь бесплатно и без коммерческой выгоды (не требуя взамен платы,
SMS и т.д.) предоставляет доступ к создаваемому пользователями каталогу ссылок на торрент-файлы, которые содержат только списки хеш-сумм.
Убедительная просьба с жалобами обращаться напрямую к пользователю, разместившему торрент файл.

Вверх