Loading...
Error

Чернобыль: Зона отчуждения (1 сезон: 1-8 серии из 8) (Андерс Банке) [2014 г., триллер, WEB-DLRip]

Статистика раздачи
Размер:  5,92 GB   |    Зарегистрирован:  2 года 1 месяц   |    Скачан:  46 раз
Сидов:  1  |  0 KB/s  ]   Личеров:  0  |  0 KB/s  ]

* - сиды/пиры с внешних источников

   
 
Автор Сообщение

nemos Пол:Муж

24-Окт-2014 08:08



Год выпуска: 2014
Жанр: Триллер
Страна: Россия
Режиссер: Андерс Банке
В ролях: Кристина Казинская, Анвар Халилулаев, Сергей Романович, Евгений Стычкин, Валерия Дмитриева, Константин Давыдов, Илья Щербинин, Николай Иванов, Дарья Лузина, Евгения Каверау

Сюжет фильма:
Пятеро молодых людей прыгают в старую «Волгу» и отправляются на поиски вора, часом ранее укравшего из квартиры родителей главного героя восемь миллионов рублей. Грабитель — обычный московский айтишник, — вместо того чтобы залечь на дно, тут же записывает видеоотчет, в котором сообщает, что финальная точка его путешествия — Чернобыльская АЭС и город Припять.

Качество видео: WEB-DLRip

Продолжительность: 00:52:00 серия
Формат: MKV
Видео: MPEG-4 AVC, 1024x576, 2100 kbps
Аудио: русский, AC3 2.0, 192 kbps

Код:

D:\Фильмы Раздача-1\Chernobyl.Zona.otchuzhdeniya.2014.WEB-DLRip.AVC.ExKinoRay\Chernobyl.Zona.otchuzhdeniya.(01.seriya.iz.08).2014.WEB-DLRip.AVC.ExKinoRay.mkv
   General
      Unique ID : 203567405896226378919826077107967681738 (0x9925A8016BAF5A9087772D3AC3BAE4CA)
      Complete name : D:\Фильмы Раздача-1\Chernobyl.Zona.otchuzhdeniya.2014.WEB-DLRip.AVC.ExKinoRay\Chernobyl.Zona.otchuzhdeniya.(01.seriya.iz.08).2014.WEB-DLRip.AVC.ExKinoRay.mkv
      Format : Matroska
      Format version : Version 2
      File size : 880 MiB
      Duration : 53mn 36s
      Overall bit rate : 2 294 Kbps
      Encoded date : UTC 2014-10-15 16:12:11
      Writing application : mkvmerge v5.6.0 ('Kenya Kane') built on May 27 2012 16:44:04
      Writing library : libebml v1.2.3 + libmatroska v1.3.0
   Video #1
      ID : 1
      Format : AVC
      Format/Info : Advanced Video Codec
      Format profile : High@L4.1
      Format settings, CABAC : Yes
      Format settings, ReFrames : 9 frames
      Codec ID : V_MPEG4/ISO/AVC
      Duration : 53mn 36s
      Bit rate : 2 100 Kbps
      Width : 1 024 pixels
      Height : 576 pixels
      Display aspect ratio : 16:9
      Frame rate mode : Constant
      Frame rate : 25.000 fps
      Color space : YUV
      Chroma subsampling : 4:2:0
      Bit depth : 8 bits
      Scan type : Progressive
      Bits/(Pixel*Frame) : 0.142
      Stream size : 789 MiB (90%)
      Writing library : x264 core 125 r2200 999b753
      Encoding settings : cabac=1 / ref=9 / deblock=1:-3:-3 / analyse=0x3:0x133 / me=umh / subme=11 / psy=1 / psy_rd=1.00:0.15 / mixed_ref=1 / me_range=32 / chroma_me=1 / trellis=2 / 8x8dct=1 / cqm=0 / deadzone=21,11 / fast_pskip=0 / chroma_qp_offset=-3 / threads=12 / lookahead_threads=2 / sliced_threads=0 / nr=0 / decimate=1 / interlaced=0 / bluray_compat=0 / constrained_intra=0 / bframes=9 / b_pyramid=2 / b_adapt=2 / b_bias=0 / direct=3 / weightb=1 / open_gop=0 / weightp=2 / keyint=250 / keyint_min=25 / scenecut=40 / intra_refresh=0 / rc_lookahead=40 / rc=2pass / mbtree=1 / bitrate=2100 / ratetol=1.0 / qcomp=0.60 / qpmin=0 / qpmax=69 / qpstep=4 / cplxblur=20.0 / qblur=0.5 / vbv_maxrate=50000 / vbv_bufsize=52000 / nal_hrd=none / ip_ratio=1.40 / aq=1:1.00
      Default : Yes
      Forced : No
   Audio #2
      ID : 2
      Format : AC-3
      Format/Info : Audio Coding 3
      Mode extension : CM (complete main)
      Format settings, Endianness : Big
      Codec ID : A_AC3
      Duration : 53mn 36s
      Bit rate mode : Constant
      Bit rate : 192 Kbps
      Channel(s) : 2 channels
      Channel positions : Front: L R
      Sampling rate : 48.0 KHz
      Bit depth : 16 bits
      Compression mode : Lossy
      Stream size : 73.6 MiB (8%)
      Language : Russian
      Default : Yes
      Forced : No
Семпл: http://multi-up.com/1008170
Трейлер


picpicpicpicpicpic
Для увеличения картинки щелкните мышкой по превью

Этот торрент недоступен для скачивания без регистрации, однако доступен по публичной magnet-ссылке (источники с публичных трекеров). Перед использованием ссылки прочтите, пожалуйста Пользовательское соглашение, а также как можно дольше оставайтесь на раздаче! Для того, чтобы скачать сам торрент-файл (который видит больше источников), а также для того, чтобы поблагодарить релизера, вам необходимо зарегистрироваться. Если регистрироваться лень - вы можете также попробовать скачать релиз по нашим партнерским ссылкам ниже.

[underverse.su].t45445.torrent
Трекер: Зарегистрирован   [ 24.10.2014 08:08 ]  

Статус: проверено (by nemos at 24.10.2014 08:09)
Поблагодарили: 4 человека
Тип торрента: публичный - доступные источники с открытых трекеров: 
Размер: 5,92 GB (занимает 1,35 DVDR, для записи нужно 2 болванки DVDR/RW)
 
 
Похожие темы
Форум Тема Автор Торрент Отв. Посл. сооб.
Discovery Чернобыль: жизнь после / Life Аfter: Сhernobyl [2016 г., документальный, наука, исследования, HDTVRip 720p] DVO ARI71
45 | 0

0 | 812

9

02.05.2016 13:55

Discovery Чернобыль: жизнь после / Life Аfter: Сhernobyl [2014 г., документальный, наука, исследования, HDTVRip] DVO ARI71
2 | 0

0 | 447

2

04.05.2016 13:09


Яндекс.Метрика powered by Sphinx


В Н И М А Н И Е
Сайт не распространяет и не хранит электронные версии произведений, а лишь бесплатно и без коммерческой выгоды (не требуя взамен платы,
SMS и т.д.) предоставляет доступ к создаваемому пользователями каталогу ссылок на торрент-файлы, которые содержат только списки хеш-сумм.
Убедительная просьба с жалобами обращаться напрямую к пользователю, разместившему торрент файл.

Вверх