Loading...
Error

Как приручить дракона 2 / How to Train Your Dragon 2 (Дин ДеБлуа) [2014 г., мультфильм, семейный, BDRip] Dub + Original + Sub (Rus,Ukr,Eng) HQ Underverse

Статистика раздачи
Размер:  2,17 GB   |    Зарегистрирован:  2 года 1 месяц   |    Скачан:  61 раз

Полного источника не было: 3 часа

Сидов:  0  |  0 KB/s  ]   Личеров:  0  |  0 KB/s  ]

* - сиды/пиры с внешних источников

   
 
Автор Сообщение

HQ Underverse 

23-Окт-2014 13:23

Как приручить дракона 2 / How to Train Your Dragon 2


Год выпуска: 2014
Жанр: мультфильм, семейный
Страна: США
Режиссер: Дин ДеБлуа
Роли озвучивали: Джей Барушель, Джона Хилл, Кейт Бланшетт, Джерард Батлер, Джимон Хонсу, Кристофер Минц-Плассе, Кристен Уиг, Кит Харингтон, Америка Феррера, ТиДжей Миллер, Крэйг Фергюсон
Сюжет фильма:
С момента примирения викингов и драконов прошло пять лет. Пока Астрид, Сморкала и остальные ребята проводят время, соревнуясь друг с другом в популярных на острове драконьих гонках, Иккинг и Беззубик путешествуют по небу, составляя карту неизвестных мест. Когда одно из их приключений приводит к открытию тайной ледяной пещеры, которая является домом для сотен ранее невиданных диких драконов и таинственного драконьего всадника, два друга оказываются в центре битвы за защиту мира.
|
Качество видео: BDRip

Продолжительность: 01:41:55
Формат: avi
Видео: XviD, 720x304, 2136 kbps
Аудио #1: русский, дублированный [лицензия], AC3 5.1, 448 kbps
Аудио #2: английский, оригинал, AC3 5.1, 448 kbps
Субтитры #1: внешние, SRT, английский
Субтитры #2: внешние, SRT, украинский
Субтитры #3: внешние, SRT, русский

Код:

General
Complete name                    : Y:\Как приручить дракона 2\How.To.Train.Your.Dragon.2.2014.BDRip.XviD.AC3.Rus.D.Eng.O.HQ.Underverse.avi
Format                           : AVI
Format/Info                      : Audio Video Interleave
Format profile                   : OpenDML
File size                        : 2.17 GiB
Duration                         : 1h 41mn
Overall bit rate                 : 3 051 Kbps
Writing application              : VirtualDubMod 1.5.10.3 | www.virtualdub-fr.org || (build 2550/release)
Writing library                  : VirtualDubMod build 2550/release

Video
ID                               : 0
Format                           : MPEG-4 Visual
Format profile                   : Streaming Video@L1
Format settings, BVOP            : Yes
Format settings, QPel            : No
Format settings, GMC             : No warppoints
Format settings, Matrix          : Custom
Codec ID                         : XVID
Codec ID/Hint                    : XviD
Duration                         : 1h 41mn
Bit rate                         : 2 137 Kbps
Width                            : 720 pixels
Height                           : 304 pixels
Display aspect ratio             : 2.35
Frame rate                       : 23.976 fps
Resolution                       : 24 bits
Colorimetry                      : 4:2:0
Scan type                        : Progressive
Bits/(Pixel*Frame)               : 0.407
Stream size                      : 1.52 GiB (70%)
Writing library                  : XviD 64

Audio #1
ID                               : 1
Format                           : AC-3
Format/Info                      : Audio Coding 3
Codec ID                         : 2000
Duration                         : 1h 41mn
Bit rate mode                    : Constant
Bit rate                         : 448 Kbps
Channel(s)                       : 6 channels
Channel positions                : Front: L C R, Surround: L R, LFE
Sampling rate                    : 48.0 KHz
Stream size                      : 327 MiB (15%)
Alignment                        : Split accross interleaves
Interleave, duration             : 42 ms (1.00 video frame)
Interleave, preload duration     : 500 ms

Audio #2
ID                               : 2
Format                           : AC-3
Format/Info                      : Audio Coding 3
Codec ID                         : 2000
Duration                         : 1h 41mn
Bit rate mode                    : Constant
Bit rate                         : 448 Kbps
Channel(s)                       : 6 channels
Channel positions                : Front: L C R, Surround: L R, LFE
Sampling rate                    : 48.0 KHz
Stream size                      : 327 MiB (15%)
Alignment                        : Split accross interleaves
Interleave, duration             : 42 ms (1.00 video frame)
Interleave, preload duration     : 500 ms

Релиз группы:

picpicpic
Для увеличения картинки щелкните мышкой по превью

Этот торрент недоступен для скачивания без регистрации, однако доступен по публичной magnet-ссылке (источники с публичных трекеров). Перед использованием ссылки прочтите, пожалуйста Пользовательское соглашение, а также как можно дольше оставайтесь на раздаче! Для того, чтобы скачать сам торрент-файл (который видит больше источников), а также для того, чтобы поблагодарить релизера, вам необходимо зарегистрироваться. Если регистрироваться лень - вы можете также попробовать скачать релиз по нашим партнерским ссылкам ниже.

[underverse.su].t45418.torrent
Трекер: Зарегистрирован   [ 23.10.2014 13:23 ]  

Статус: проверено (by HQ Underverse at 23.10.2014 13:23)
Поблагодарили: 3 человека
Тип торрента: публичный - доступные источники с открытых трекеров: 
Размер: 2,17 GB (занимает 1/2 DVDR, для записи нужно 1 болванка DVDR/RW)
 
 
Похожие темы
Форум Тема Автор Торрент Отв. Посл. сооб.
Мультфильмы HQ Как приручить дракона / How to Train Your Dragon (Дин ДеБлуа, Крис Сандерс) [2010 г., мультфильм, фэнтези, комедия, приключения, семейный, HDRip] (Rus, Ukr, Eng) HQ Underverse HQ Underverse
1 | 0

1 | 1275

34

06.09.2013 01:06

Зарубежные мультфильмы Как приручить медведя / Den kæmpestore bjørn (Эсбен Тофт Якобсен) [2011 г., Мультфильм, фэнтези, драма, приключения, семейный., DVDRip] МУХА~
1 | 0

2 | 900

28

24.07.2011 10:12

Зарубежные мультфильмы Как приручить дракона / How to Train Your Dragon (Дин ДеБлуа, Крис Сандерс) [2010 г., фэнтези, комедия, приключения, семейный, мультфильм, BDRip] Dub Паукан
31 | 0

5 | 1463

4

12.03.2016 14:13

Зарубежные мультфильмы Как приручить дракона / How to Train Your Dragon (Дин ДеБлуа / Dean DeBlois, Крис Сандерс / Chris Sanders) [2010 г., анимация, фэнтези, комедия, приключения, семейный, BDRip] GUree
0 | 0

1 | 1173

2

04.11.2010 04:22

Зарубежные мультфильмы Как приручить зомби / Papa, soy una zombi (Жоан Эспинач, Рикардо Рамон) [2012 г., мультфильм, ужасы, фэнтези, комедия, DVDRip] MVO 90ytr90
22 | 0

0 | 709

26

03.12.2012 15:12

T Зарубежные мультфильмы Как приручить дракона 2 / How to Train Your Dragon 2 (Дин ДеБлуа) [2014 г., Мультфильм, Семейный, WEB-DLRip-AVC] Dub (RUS, iTunes Russia) + Original (ENG) + Subs (RUS, ENG, UKR) Ведьмочка
66 | 3

0 | 1139

45

01.09.2014 06:04

T Зарубежные мультфильмы Как приручить дракона 2 / How to Train Your Dragon 2 (Дин ДеБлуа) [2014 г., Мультфильм, Семейный, WEB-DLRip] Dub (RUS, iTunes Russia) Ведьмочка
18 | 0

0 | 1037

52

01.09.2014 06:45

Зарубежные мультфильмы Как приручить дракона 2 / How to Train Your Dragon 2 (Дин ДеБлуа / Dean DeBlois) [2014 г., мультфильм, фэнтези, комедия, BDRip] Dub 90ytr90
2 | 0

0 | 1012

60

18.10.2014 13:32

Короткометражные мультфильмы Как приручить дракона: Дар ночной фурии / Dragons: Gift of the Night Fury (Том Оуенс) [2011 г., Мультфильм, короткометражка, приключения, семейный, DVDRip] МУХА~
2 | 0

3 | 1111

30

16.09.2012 03:11

Архив Как приручить дракона / How to Train Your Dragon (Дин ДеБлуа, Крис Сандерс) [2010 г., фэнтези, комедия, приключения, семейный, мультфильм, BDRip 720p] ptrvch
0 | 0

1 | 1806

3

16.06.2011 08:09


Яндекс.Метрика powered by Sphinx


В Н И М А Н И Е
Сайт не распространяет и не хранит электронные версии произведений, а лишь бесплатно и без коммерческой выгоды (не требуя взамен платы,
SMS и т.д.) предоставляет доступ к создаваемому пользователями каталогу ссылок на торрент-файлы, которые содержат только списки хеш-сумм.
Убедительная просьба с жалобами обращаться напрямую к пользователю, разместившему торрент файл.

Вверх