Loading...
Error

Королева бандитов 2 / Серии 1-16 (16) (Дмитрий Кузьмин) [2014 г., криминальный, мелодрама, SatRip]

Статистика раздачи
Размер:  9,39 GB   |    Зарегистрирован:  2 года 1 месяц   |    Скачан:  21 раз
Сидов:  1  |  35 KB/s  ]   Личеров:  0  |  0 KB/s  ]

* - сиды/пиры с внешних источников

   
 
Автор Сообщение

nemos Пол:Муж

20-Окт-2014 17:42



Год выпуска: премьера (РФ) 20 октября 2014
Жанр: криминальный, мелодрама
Страна: Россия
Режиссер: Дмитрий Кузьмин
В ролях: Екатерина Кузнецова, Роман Полянский, Елена Сафонова, Александр Дьяченко, Юрий Устюгов, Артур Бичахчян, Пётр Томашевский, Юрий Елагин, Ольга Павловец, Анна Казючиц, Ангелина Притуманова, Софья Хурсан, Денис Варенов, Олег Пыхонин, Алина Бабак, Даниил Коновалов, Александр Никольский, Сергей Иванюк, Сергей Комаров, Иван Непомнящий, Алексей Овсянников, Анастасия Шаповал
Качество видео: SatRip

Продолжительность: 00:43:41 серия
Формат: AVI
Видео: DivX, 720х400, 1602 kbps
Аудио: русский, MP3 2.0, 128 kbps

Семейное счастье Полины Поливановой оказывается недолгим: Гриша трагически погибает, Татку забирают в приют, а саму героиню выселяют из служебной квартиры и выгоняют с работы. Полина впадает в отчаяние: она остается одна без средств к существованию, и помощи ей ждать неоткуда. Пытаясь найти хоть какой-то выход, девушка решает отыскать друга Козыря «Сашу Грозу из Ярославля», чьё имя выгравировано на подаренном ей перстне. Вскоре героиня находит таинственного друга, но, вопреки ожиданиям, Сашей-Грозой оказывается женщина. Она привечает Полину в своём доме, не посвятив девушку, какие тайны хранит их страшный посёлок. Полине предстоит жить под одной крышей с вдовой серьёзного бандита и ее сыном – красавцем, прозванным Принцем, узнать тайны загадочного Лесника, по слухам, убившего свою жену, и вызвать ненависть соратника Принца – Палача. Каждый здесь ведет свою игру, и Полине придется разобраться в запутанной и опасной головоломке, чтобы найти единственно верный выход…

Код:

D:\Фильмы Раздача-1\Koroleva.banditov\Koroleva.banditov.2.01.avi
   General
      Complete name : D:\Фильмы Раздача-1\Koroleva.banditov\Koroleva.banditov.2.01.avi
      Format : AVI
      Format/Info : Audio Video Interleave
      File size : 545 MiB
      Duration : 43mn 41s
      Overall bit rate : 1 743 Kbps
      Writing application : transcode-1.1.5
   Video #0
      ID : 0
      Format : MPEG-4 Visual
      Format settings, BVOP : Yes
      Format settings, QPel : No
      Format settings, GMC : No warppoints
      Format settings, Matrix : Default (H.263)
      Codec ID : DX50
      Codec ID/Hint : DivX 5
      Duration : 43mn 41s
      Bit rate : 1 602 Kbps
      Width : 720 pixels
      Height : 400 pixels
      Display aspect ratio : 16:9
      Frame rate : 25.000 fps
      Color space : YUV
      Chroma subsampling : 4:2:0
      Bit depth : 8 bits
      Scan type : Progressive
      Compression mode : Lossy
      Bits/(Pixel*Frame) : 0.223
      Stream size : 501 MiB (92%)
      Writing library : Intel(R) MPEG-4 encoder based on Intel(R) IPP 6.1 build 137.20[6.1.137.763]
   Audio #1
      ID : 1
      Format : MPEG Audio
      Format version : Version 1
      Format profile : Layer 3
      Mode : Joint stereo
      Mode extension : MS Stereo
      Codec ID : 55
      Codec ID/Hint : MP3
      Duration : 43mn 41s
      Bit rate mode : Constant
      Bit rate : 128 Kbps
      Channel(s) : 2 channels
      Sampling rate : 48.0 KHz
      Compression mode : Lossy
      Stream size : 40.0 MiB (7%)
      Alignment : Aligned on interleaves
      Interleave, duration : 24 ms (0.60 video frame)
      Interleave, preload duration : 48 ms
      Writing library : LAME3.98.2
Семпл: http://multi-up.com/1007446

picpicpicpicpicpicpicpicpicpicpic
Для увеличения картинки щелкните мышкой по превью

Этот торрент недоступен для скачивания без регистрации, однако доступен по публичной magnet-ссылке (источники с публичных трекеров). Перед использованием ссылки прочтите, пожалуйста Пользовательское соглашение, а также как можно дольше оставайтесь на раздаче! Для того, чтобы скачать сам торрент-файл (который видит больше источников), а также для того, чтобы поблагодарить релизера, вам необходимо зарегистрироваться. Если регистрироваться лень - вы можете также попробовать скачать релиз по нашим партнерским ссылкам ниже.

[underverse.su].t45491.torrent
Трекер: Зарегистрирован   [ 25.10.2014 17:34 ]  

Статус: проверено (by nemos at 25.10.2014 17:34)
Поблагодарили: 3 человека
Тип торрента: публичный - доступные источники с открытых трекеров: 
Размер: 9,39 GB (занимает 2,15 DVDR, для записи нужно 3 болванки DVDR/RW)
 
 
Похожие темы
Форум Тема Автор Торрент Отв. Посл. сооб.
xUSSR сериалы Королева бандитов / Серии 1-16 (16) (Валерий Девятилов) [2013 г., Мелодрама , BDRip-AVC] Original Чертёнок
10 | 0

0 | 887

24

25.03.2013 15:25



Последний раз редактировалось: nemos (06.11.2014 06:31), всего редактировалось 6 раз(а)

nemos Пол:Муж

21-Окт-2014 11:10

Раздача обновлена! 16 серий.

Яндекс.Метрика powered by Sphinx


В Н И М А Н И Е
Сайт не распространяет и не хранит электронные версии произведений, а лишь бесплатно и без коммерческой выгоды (не требуя взамен платы,
SMS и т.д.) предоставляет доступ к создаваемому пользователями каталогу ссылок на торрент-файлы, которые содержат только списки хеш-сумм.
Убедительная просьба с жалобами обращаться напрямую к пользователю, разместившему торрент файл.

Вверх