Loading...
Error

Позывной «Стая» 2 / Серии: 1-12 из 12 (Михаил Колпахчиев) [2014 г., боевик, SatRip]

Статистика раздачи
Размер:  6,45 GB   |    Зарегистрирован:  2 года   |    Скачан:  18 раз
Сидов:  2  |  169 KB/s  ]   Личеров:  0  |  0 KB/s  ]

* - сиды/пиры с внешних источников

   
 
Автор Сообщение

nemos Пол:Муж

20-Окт-2014 14:00



Год выпуска: премьера (РФ) 19 октября 2014
Жанр: боевик
Режиссер: Михаил Колпахчиев
В ролях: Евгений Сидихин, Сергей Воробьёв, Геннадий Казачков, Владимир Александров, Александр Эрлих, Петр Логачев, Полина Сидихина, Инна Ярмошук, Алена Андреева
Качество видео: SatRip

Продолжительность: 00:45:17 серия
Формат: AVI
Видео: XviD, 720x400 , 1497 kbps
Аудио: русский, AC3 2.0, 192 kbps

Будучи в отставке, члены частного боевого отряда исполняют заказы в разных странах. Имея покровителя в российских спецслужбах, «Стая» зачастую берется за деликатные поручения за пределами своей страны в интересах правительства - в случаях, когда официальными путями государство действовать не может. Непобедимой команде предстоит бросить вызов спецслужбам Англии, Америки и Румынии, затеять смертельную игру с Массадом, отбить миллиард долларов у международной преступной группировки и даже сняться в кино в далекой африканской стране.

Код:

D:\Фильмы Раздача-1\Staja.2.2014.SATRip.Files-x.GeneralFilm\04.Staja.2.2014.SATRip.Files-x.GeneralFilm.avi
   General
      Complete name : D:\Фильмы Раздача-1\Staja.2.2014.SATRip.Files-x.GeneralFilm\04.Staja.2.2014.SATRip.Files-x.GeneralFilm.avi
      Format : AVI
      Format/Info : Audio Video Interleave
      File size : 550 MiB
      Duration : 45mn 17s
      Overall bit rate : 1 699 Kbps
      Writing application : VirtualDubModRus 1.5.10.2 (build 2542/release)
      Writing library : VirtualDubMod build 2542/release
   Video #0
      ID : 0
      Format : MPEG-4 Visual
      Format profile : Advanced Simple@L5
      Format settings, BVOP : 1
      Format settings, QPel : No
      Format settings, GMC : No warppoints
      Format settings, Matrix : Custom
      Codec ID : XVID
      Codec ID/Hint : XviD
      Duration : 45mn 17s
      Bit rate : 1 497 Kbps
      Width : 720 pixels
      Height : 400 pixels
      Display aspect ratio : 16:9
      Frame rate : 25.000 fps
      Color space : YUV
      Chroma subsampling : 4:2:0
      Bit depth : 8 bits
      Scan type : Progressive
      Compression mode : Lossy
      Bits/(Pixel*Frame) : 0.208
      Stream size : 485 MiB (88%)
      Writing library : XviD 73
   Audio #1
      ID : 1
      Format : AC-3
      Format/Info : Audio Coding 3
      Mode extension : CM (complete main)
      Format settings, Endianness : Big
      Codec ID : 2000
      Duration : 45mn 17s
      Bit rate mode : Constant
      Bit rate : 192 Kbps
      Channel(s) : 2 channels
      Channel positions : Front: L R
      Sampling rate : 48.0 KHz
      Bit depth : 16 bits
      Compression mode : Lossy
      Stream size : 62.2 MiB (11%)
      Alignment : Split accross interleaves
      Interleave, duration : 40 ms (1.00 video frame)
      Interleave, preload duration : 500 ms
picpicpicpicpicpicpicpicpic
Для увеличения картинки щелкните мышкой по превью

Этот торрент недоступен для скачивания без регистрации, однако доступен по публичной magnet-ссылке (источники с публичных трекеров). Перед использованием ссылки прочтите, пожалуйста Пользовательское соглашение, а также как можно дольше оставайтесь на раздаче! Для того, чтобы скачать сам торрент-файл (который видит больше источников), а также для того, чтобы поблагодарить релизера, вам необходимо зарегистрироваться. Если регистрироваться лень - вы можете также попробовать скачать релиз по нашим партнерским ссылкам ниже.

[underverse.su].t47174.torrent
Трекер: Зарегистрирован   [ 08.12.2014 16:42 ]  

Статус: проверено (by nemos at 08.12.2014 16:42)
Поблагодарили: 2 человека
Тип торрента: публичный - доступные источники с открытых трекеров: 
Размер: 6,45 GB (занимает 1,47 DVDR, для записи нужно 2 болванки DVDR/RW)
 
 
Похожие темы
Форум Тема Автор Торрент Отв. Посл. сооб.
xUSSR сериалы Позывной «Стая» / Серии: 1-8 из 8 (Андрей Щербинин) [2013 г., Боевик, SatRip-AVC] nemos
17 | 1

0 | 1301

24

03.03.2014 16:16


Яндекс.Метрика powered by Sphinx


В Н И М А Н И Е
Сайт не распространяет и не хранит электронные версии произведений, а лишь бесплатно и без коммерческой выгоды (не требуя взамен платы,
SMS и т.д.) предоставляет доступ к создаваемому пользователями каталогу ссылок на торрент-файлы, которые содержат только списки хеш-сумм.
Убедительная просьба с жалобами обращаться напрямую к пользователю, разместившему торрент файл.

Вверх