Loading...
Error

Чудотворец (1-8 серии из 8) (Дмитрий Константинов) [2014 г., Драма, SatRip]

Статистика раздачи
Размер:  4,6 GB   |    Зарегистрирован:  2 года   |    Скачан:  23 раза
Сидов:  1  |  0 KB/s  ]   Личеров:  0  |  0 KB/s  ]

* - сиды/пиры с внешних источников

   
 
Автор Сообщение

nemos Пол:Муж

17-Окт-2014 17:51



Год выпуска: 2014
Жанр: Драма
Страна: Россия
Режиссер: Дмитрий Константинов
В ролях: Фёдор Бондарчук, Филипп Янковский, Оксана Фандера, Евгений Антропов, Дмитрий Мухамадеев, Аглая Шиловская, Михаил Горский, Денис Шведов, Фёдор Лавров, Олег Кассин, Оксана Тимановская, Галина Польских
Сюжет фильма:
Ещё до перестройки в СССР существовала специальная лаборатория при Институте информационных технологий, где изучали экстрасенсорные способности людей, пытаясь объяснить их с научной точки зрения. Именно там впервые встречаются Николай Арбенин и Виктор Ставицкий. Их противостояние, начавшееся, как борьба двух мужчин за сердце женщины, с годами перерастает в настоящую «битву экстрасенсов» — только проходит она не на телеэкране, а в реальной жизни. Конец 1988 — начало 1989 годов: время, когда экстрасенсы собирали полные залы, выступали в прямом эфире по радио и центральным телеканалам. Время, когда противостояние Николая Арбенина и Виктора Ставицкого достигает своей кульминации.


Качество видео: SatRip

Продолжительность: 00:47:27 серия
Формат: AVI
Видео: DivX, 720x400, 1500 kbps
Аудио: русский, MP3 2.0, 128 kbps

Код:

D:\Фильмы Раздача-1\Чудотворец. SATRip\4yd0tB0rec.01.avi
   General
      Complete name : D:\Фильмы Раздача-1\Чудотворец. SATRip\4yd0tB0rec.01.avi
      Format : AVI
      Format/Info : Audio Video Interleave
      File size : 556 MiB
      Duration : 47mn 27s
      Overall bit rate : 1 638 Kbps
      Writing application : VirtualDubMod 1.5.10.2 (build 2540/release)
      Writing library : VirtualDubMod build 2540/release
   Video #0
      ID : 0
      Format : MPEG-4 Visual
      Format settings, BVOP : No
      Format settings, QPel : No
      Format settings, GMC : No warppoints
      Format settings, Matrix : Default (H.263)
      Codec ID : DX50
      Codec ID/Hint : DivX 5
      Duration : 47mn 27s
      Bit rate : 1 500 Kbps
      Width : 720 pixels
      Height : 400 pixels
      Display aspect ratio : 16:9
      Frame rate : 25.000 fps
      Color space : YUV
      Chroma subsampling : 4:2:0
      Bit depth : 8 bits
      Scan type : Progressive
      Compression mode : Lossy
      Bits/(Pixel*Frame) : 0.208
      Stream size : 509 MiB (92%)
      Writing library : DivX 6.8.5 (UTC 2009-08-20)
   Audio #1
      ID : 1
      Format : MPEG Audio
      Format version : Version 1
      Format profile : Layer 3
      Mode : Joint stereo
      Mode extension : MS Stereo
      Codec ID : 55
      Codec ID/Hint : MP3
      Duration : 47mn 27s
      Bit rate mode : Constant
      Bit rate : 128 Kbps
      Channel(s) : 2 channels
      Sampling rate : 48.0 KHz
      Compression mode : Lossy
      Stream size : 43.4 MiB (8%)
      Alignment : Aligned on interleaves
      Interleave, duration : 40 ms (1.00 video frame)
      Interleave, preload duration : 504 ms
picpicpicpicpicpicpicpicpicpic
Для увеличения картинки щелкните мышкой по превью

Этот торрент недоступен для скачивания без регистрации, однако доступен по публичной magnet-ссылке (источники с публичных трекеров). Перед использованием ссылки прочтите, пожалуйста Пользовательское соглашение, а также как можно дольше оставайтесь на раздаче! Для того, чтобы скачать сам торрент-файл (который видит больше источников), а также для того, чтобы поблагодарить релизера, вам необходимо зарегистрироваться. Если регистрироваться лень - вы можете также попробовать скачать релиз по нашим партнерским ссылкам ниже.

[underverse.su].t46443.torrent
Трекер: Зарегистрирован   [ 21.11.2014 03:16 ]  

Статус: проверено (by nemos at 21.11.2014 03:16)
Поблагодарили: 4 человека
Тип торрента: публичный - доступные источники с открытых трекеров: 
Размер: 4,6 GB (занимает 1,05 DVDR, для записи нужно 2 болванки DVDR/RW)
 
 


Последний раз редактировалось: nemos (21.11.2014 03:16), всего редактировалось 2 раз(а)

nemos Пол:Муж

22-Окт-2014 19:43

Сериал Чудотворец выходит 1 раз в неделю каждый четверг по 2 серии:
Четверг, 9 октября (1-2 серии)
Четверг, 16 октября (3-4 серии)
Четверг, 23 октября (5-6 серии)
Четверг, 30 октября (7-8 серии) заключительные

Жданов Пол:Муж

20-Ноя-2014 05:27

Отличный сериал!

Жданов Пол:Муж

20-Ноя-2014 12:15

Добавьте серии пожалуйста!

M_Iron Пол:Муж

06-Янв-2016 11:13

В 5 серии с 00:13:18 по 00:17:34 нет звука. При воспроизведении на компьютере в указанном интервале заметно повреждение видео (т.н. "квадратики").

Яндекс.Метрика powered by Sphinx


В Н И М А Н И Е
Сайт не распространяет и не хранит электронные версии произведений, а лишь бесплатно и без коммерческой выгоды (не требуя взамен платы,
SMS и т.д.) предоставляет доступ к создаваемому пользователями каталогу ссылок на торрент-файлы, которые содержат только списки хеш-сумм.
Убедительная просьба с жалобами обращаться напрямую к пользователю, разместившему торрент файл.

Вверх