Loading...
Error

Медвежья хватка (1-4 серии из 4) (Артём Мазунов) [2014 г., Детектив, SatRip]

Статистика раздачи
Размер:  2,31 GB   |    Зарегистрирован:  2 года 1 месяц   |    Скачан:  24 раза

Полного источника не было: 3 месяца 30 дней

Сидов:  0  |  0 KB/s  ]   Личеров:  0  |  0 KB/s  ]

* - сиды/пиры с внешних источников

   
 
Автор Сообщение

nemos Пол:Муж

17-Окт-2014 16:36


Год выпуска: премьера (РФ) 17 октября 2014
Жанр: Детектив
Страна: Россия
Режиссер: Артём Мазунов
В ролях: Вячеслав Дробинков, Дмитрий Ульянов, Ольга Сухарева, Наталья Батрак, Константин Балакирев, Андрей Чуманов, Андрей Финягин, Владимир Тишко, Ильдар Фатхуллин, Александр Ефремов (II), Павел Сметанкин, Артём Мазунов, Илья Ермолаев, Станислав Ковальчук, Максим Костромыкин, Сергей Ефремов (II), Зинаида Матросова, Алла Малкова, Денис Норка, Любовь Табачкова, Константин Прытков, Сергей Тезов, Михаил Слесарев, Игорь Фурманюк
Качество видео: SatRip

Продолжительность: 00:45:11 серия
Формат: AVI
Видео: DivX, 720x448, 1500 kbps
Аудио: русский, MP3 2.0, 128 kbps

Из далекого алтайского городка в Москву приехал молодой мужчина Михаил. Он привез с собой деньги, вырученные от продажи дома и небольшой кузнечной мастерской. Вся собранная сумма — около 30 тысяч долларов — нужна на срочную хирургическую операцию старшей сестре Михаила — Анне. Прямо на перроне вокзала сумку с деньгами у Михаила крадут, а он сам оказывается в участке, так как при попытке догнать вора наш герой сбивает с ног полицейского. Чужой город, отсутствие денег, крушение надежд на выздоровление сестры - подобные обстоятельства могут сломать любого человека. Но не Михаила. Он настоящий сибиряк, охотник, и у него - медвежья хватка...

Код:

D:\Фильмы Раздача-1\Медвежья хватка\Medvezhja.hvatka.01.SATRip.avi
   General
      Complete name : D:\Фильмы Раздача-1\Медвежья хватка\Medvezhja.hvatka.01.SATRip.avi
      Format : AVI
      Format/Info : Audio Video Interleave
      File size : 529 MiB
      Duration : 45mn 11s
      Overall bit rate : 1 637 Kbps
      Writing library : VirtualDub build 35491/release
   Video #0
      ID : 0
      Format : MPEG-4 Visual
      Format settings, BVOP : 1
      Format settings, QPel : No
      Format settings, GMC : No warppoints
      Format settings, Matrix : Default (H.263)
      Muxing mode : Packed bitstream
      Codec ID : DX50
      Codec ID/Hint : DivX 5
      Duration : 45mn 11s
      Bit rate : 1 500 Kbps
      Width : 720 pixels
      Height : 448 pixels
      Display aspect ratio : 1.607
      Frame rate : 25.000 fps
      Color space : YUV
      Chroma subsampling : 4:2:0
      Bit depth : 8 bits
      Scan type : Progressive
      Compression mode : Lossy
      Bits/(Pixel*Frame) : 0.186
      Stream size : 485 MiB (92%)
      Writing library : DivX 6.8.5 (UTC 2009-08-20)
   Audio #1
      ID : 1
      Format : MPEG Audio
      Format version : Version 1
      Format profile : Layer 3
      Mode : Joint stereo
      Codec ID : 55
      Codec ID/Hint : MP3
      Duration : 45mn 11s
      Bit rate mode : Constant
      Bit rate : 128 Kbps
      Channel(s) : 2 channels
      Sampling rate : 48.0 KHz
      Compression mode : Lossy
      Stream size : 41.4 MiB (8%)
      Alignment : Split accross interleaves
      Interleave, duration : 40 ms (1.00 video frame)
      Interleave, preload duration : 500 ms
picpicpicpicpicpicpicpicpicpicpic
Для увеличения картинки щелкните мышкой по превью

Этот торрент недоступен для скачивания без регистрации, однако доступен по публичной magnet-ссылке (источники с публичных трекеров). Перед использованием ссылки прочтите, пожалуйста Пользовательское соглашение, а также как можно дольше оставайтесь на раздаче! Для того, чтобы скачать сам торрент-файл (который видит больше источников), а также для того, чтобы поблагодарить релизера, вам необходимо зарегистрироваться. Если регистрироваться лень - вы можете также попробовать скачать релиз по нашим партнерским ссылкам ниже.

[underverse.su].t45201.torrent
Трекер: Зарегистрирован   [ 17.10.2014 16:36 ]  

Статус: проверено (by nemos at 17.10.2014 16:54)
Поблагодарили: 2 человека
Тип торрента: публичный - доступные источники с открытых трекеров: 
Размер: 2,31 GB (занимает 0,53 DVDR, для записи нужно 1 болванка DVDR/RW)
 
 

Яндекс.Метрика powered by Sphinx


В Н И М А Н И Е
Сайт не распространяет и не хранит электронные версии произведений, а лишь бесплатно и без коммерческой выгоды (не требуя взамен платы,
SMS и т.д.) предоставляет доступ к создаваемому пользователями каталогу ссылок на торрент-файлы, которые содержат только списки хеш-сумм.
Убедительная просьба с жалобами обращаться напрямую к пользователю, разместившему торрент файл.

Вверх