Loading...
Error

Мачо и ботан 2 / 22 Jump Street (Фил Лорд, Кристофер Миллер) [2014 г., комедия, боевик, криминал, BDRip] Rus HQ Underverse

Статистика раздачи
Размер:  2,18 GB   |    Зарегистрирован:  2 года 1 месяц   |    Скачан:  17 раз

Полного источника не было: 2 месяца 3 дня

Сидов:  0  |  0 KB/s  ]   Личеров:  0  |  0 KB/s  ]

* - сиды/пиры с внешних источников

   
 
Автор Сообщение

HQ Underverse 

17-Окт-2014 13:28

Мачо и ботан 2 / 22 Jump Street


Год выпуска: 2014
Жанр: комедия, боевик, криминал
Страна: США
Режиссер: Фил Лорд, Кристофер Миллер
В ролях: Джона Хилл, Ченнинг Татум, Петер Стормаре, Уайатт Расселл, Эмбер Стивенс, Джиллиан Белл, Айс Кьюб, братья Лукас, Ник Офферман, Джимми Татро
Сюжет фильма:
Офицерам Шмидту и Дженко теперь предстоит работать под прикрытием в местном колледже. Однако когда Дженко встречает родственную душу в футбольной команде, а Шмидт проникает в богемную среду, они начинают сомневаться в их товариществе…

  • Мировая премьера: 5 июня 2014
  • Российская премьера: 3 июля 2014

/
Качество видео: BDRip

Продолжительность: 01:51:56
Формат: avi
Видео: XviD, 720x304, 2322 kbps
Аудио: русский, дублированный [лицензия], AC3 5.1, 448 kbps

Семпл: http://multi-up.com/1006694

Релиз группы:

Код:

General
Complete name                    : D:\Video\Movies\Releases\22.Jump.Street.2014.BDRip.XviD.AC3.Rus.D.HQ.Underverse.avi
Format                           : AVI
Format/Info                      : Audio Video Interleave
Format profile                   : OpenDML
File size                        : 2.18 GiB
Duration                         : 1h 51mn
Overall bit rate                 : 2 782 Kbps
Writing application              : VirtualDubMod 1.5.10.3 | www.virtualdub-fr.org || (build 2550/release)
Writing library                  : VirtualDubMod build 2550/release

Video
ID                               : 0
Format                           : MPEG-4 Visual
Format profile                   : Streaming Video@L1
Format settings, BVOP            : Yes
Format settings, QPel            : No
Format settings, GMC             : No warppoints
Format settings, Matrix          : Custom
Codec ID                         : XVID
Codec ID/Hint                    : XviD
Duration                         : 1h 51mn
Bit rate                         : 2 322 Kbps
Width                            : 720 pixels
Height                           : 304 pixels
Display aspect ratio             : 2.35
Frame rate                       : 23.976 fps
Resolution                       : 24 bits
Colorimetry                      : 4:2:0
Scan type                        : Progressive
Bits/(Pixel*Frame)               : 0.443
Stream size                      : 1.82 GiB (83%)
Writing library                  : XviD 64

Audio
ID                               : 1
Format                           : AC-3
Format/Info                      : Audio Coding 3
Codec ID                         : 2000
Duration                         : 1h 51mn
Bit rate mode                    : Constant
Bit rate                         : 448 Kbps
Channel(s)                       : 6 channels
Channel positions                : Front: L C R, Surround: L R, LFE
Sampling rate                    : 48.0 KHz
Stream size                      : 359 MiB (16%)
Alignment                        : Split accross interleaves
Interleave, duration             : 42 ms (1.00 video frame)
Interleave, preload duration     : 500 ms

picpicpic pic
Для увеличения картинки щелкните мышкой по превью

Этот торрент недоступен для скачивания без регистрации, однако доступен по публичной magnet-ссылке (источники с публичных трекеров). Перед использованием ссылки прочтите, пожалуйста Пользовательское соглашение, а также как можно дольше оставайтесь на раздаче! Для того, чтобы скачать сам торрент-файл (который видит больше источников), а также для того, чтобы поблагодарить релизера, вам необходимо зарегистрироваться. Если регистрироваться лень - вы можете также попробовать скачать релиз по нашим партнерским ссылкам ниже.

[underverse.su].t45193.torrent
Трекер: Зарегистрирован   [ 17.10.2014 13:54 ]  

Статус: проверено (by Паукан at 20.10.2014 08:41)
Поблагодарили: пока никто не поблагодарил...
Тип торрента: публичный - доступные источники с открытых трекеров: 
Размер: 2,18 GB (занимает 1/2 DVDR, для записи нужно 1 болванка DVDR/RW)
 
 
Похожие темы
Форум Тема Автор Торрент Отв. Посл. сооб.
Зарубежное кино [DVDRip, Low-Res HDRip, и т.д.] Мачо и ботан / 21 Jump Street (Фил Лорд, Крис Миллер) [2012 г., боевик, комедия, криминал, DVDRip] deny-BOY
4 | 0

0 | 848

35

30.04.2012 16:09

Зарубежное кино [DVDRip, Low-Res HDRip, и т.д.] Мачо и ботан / 21 Jump Street (Фил Лорд, Крис Миллер) [2012 г., боевик, комедия, криминал, DVDRip-AVC] H. Ledger
4 | 0

3 | 1038

94

04.06.2012 11:33

Зарубежное кино [DVDRip, Low-Res HDRip, и т.д.] Мачо и ботан / 21 Jump Street (Фил Лорд, Крис Миллер) [2012, боевик, комедия, криминал, HDRip-AVC] Dub (RUS+UKR) + Subs Garnett
9 | 0

0 | 720

16

20.12.2012 11:54

Зарубежное кино [DVDRip, Low-Res HDRip, и т.д.] Мачо и ботан 2 / 22 Jump Street (Фил Лорд, Кристофер Миллер) [2014 г., Комедия, Боевик, Криминал, BDRip] Dub (RUS, Лицензия) Ведьмочка
12 | 0

0 | 776

17

11.10.2014 16:38

Зарубежное кино [DVDRip, Low-Res HDRip, и т.д.] Мачо и ботан 2 / 22 Jump Street (Фил Лорд, Кристофер Миллер) [2014 г., Комедия, Боевик, Криминал, BDRip-AVC] Dub (RUS, Лицензия) + AVO (RUS, А. Матвеев) + Dub (UKR, Лицензия) + Original (ENG) +... Ведьмочка
3 | 0

0 | 628

9

12.10.2014 06:44

Зарубежное кино [DVDRip, Low-Res HDRip, и т.д.] Мачо и ботан 2 / 22 Jump Street (Фил Лорд, Кристофер Миллер) [2014 г., Комедия, Боевик, Криминал, BDRip] Dub (RUS, Лицензия) + Original (ENG) + Subs (RUS, ENG) Ведьмочка
2 | 0

0 | 667

5

12.10.2014 06:58

Зарубежное кино [DVDRip, Low-Res HDRip, и т.д.] Мачо и ботан 2 / 22 Jump Street (Фил Лорд, Кристофер Миллер) [2014 г., Комедия, Боевик, Криминал, BDRip-AVC] Dub (RUS, Лицензия) + Original (ENG) + Subs (RUS, ENG) Ведьмочка
67 | 0

0 | 653

11

12.10.2014 22:54

Зарубежное кино [DVDRip, Low-Res HDRip, и т.д.] Мачо и ботан 2 / 22 Jump Street (Фил Лорд, Кристофер Миллер) [2014 г., Комедия, Боевик, Криминал, BDRip-AVC] Dub (RUS, Лицензия) + Subs (RUS, ENG) Ведьмочка
21 | 0

1 | 835

30

13.10.2014 03:01

Зарубежное кино [DVDRip, Low-Res HDRip, и т.д.] Мачо и ботан 2 / 22 Jump Street (Фил Лорд / Phil Lord, Кристофер Миллер / Christopher Miller) [2014 г., боевик, комедия, криминал, BDRip] Dub 90ytr90
18 | 0

0 | 391

4

26.11.2014 19:37

Зарубежное кино HQ Мачо и ботан / 21 Jump Street (Фил Лорд, Крис Миллер) [2012 г., боевик, комедия, криминал, HDRip] (Rus, Ukr, Eng) HQ Underverse HQ Underverse
0 | 0

0 | 807

56

13.06.2012 16:49


Яндекс.Метрика powered by Sphinx


В Н И М А Н И Е
Сайт не распространяет и не хранит электронные версии произведений, а лишь бесплатно и без коммерческой выгоды (не требуя взамен платы,
SMS и т.д.) предоставляет доступ к создаваемому пользователями каталогу ссылок на торрент-файлы, которые содержат только списки хеш-сумм.
Убедительная просьба с жалобами обращаться напрямую к пользователю, разместившему торрент файл.

Вверх