Loading...
Error

Кухня / Сезон 4 (Серия:1-20 из 20) (Дмитрий Дьяченко) [2014 г., Комедия, SatRip]

Статистика раздачи
Размер:  6,51 GB   |    Зарегистрирован:  2 года   |    Скачан:  38 раз

Полного источника не было: 1 день 11 часов

Сидов:  0  |  0 KB/s  ]   Личеров:  0  |  0 KB/s  ]

* - сиды/пиры с внешних источников

   
 
Автор Сообщение

nemos Пол:Муж

13-Окт-2014 18:13

Кухня 4
Год выпуска: 2014
Жанр: Комедия
Страна: Россия
Режиссер: Дмитрий Дьяченко
В ролях: Никита Тарасов, Дмитрий Назаров, Марк Богатырев, Дмитрий Нагиев, Юлия Такшина, Елена Подкаминская, Марина Могилевская, Сергей Лавыгин, Виктор Хориняк, Сергей Епишев, Ольга Кузьмина, Екатерина Кузнецова (IV), Михаил Тарабукин, Виктория Лукина, Елена Чернявская, Виталий Щанников, Сергей Беляев, Роман Индык, Евгения Храповицкая
Сюжет фильма:
13 октября ресторан Claude Monet вновь распахнёт свои двери в эфире СТС!
Персонал «Кухни» представит телезрителям новое, удивительное и местами экзотическое меню: в четвёртом сезоне полюбившихся героев ждет еще больше невероятных приключений и поводов для искрометных шуток, а на поле кулинарных действий появятся новые лица.
Максим Лавров откроет секрет счастливой семейной жизни, а Вика закроет его обратно!
Виктор Баринов превратится в кинозвезду, а Дмитрий Нагиев опустит его с небес на землю!
Костя исполнит супружеский долг с секундомером, а молекулярный повар Катя ощутит всю химию любви!
Федя начнет говорить с акцентом, а Сеня покажет свою квартиру и жену!
В Claude Monet появится старый рояль, а в «Аркобалено» — новый су-шеф!
Качество видео: SatRip

Продолжительность: 00.26.12 серия
Формат: AVI
Видео: XviD, 720x400 , 1 800 kbps
Аудио: русский, MP3 2.0, 128 kbps

Код:

D:\Фильмы Раздача-1\Кухня сезон 4 SATRip AVI\Kuhnjya.4-01.SATRip.[www.*другой трекер*].avi
   General
      Complete name : D:\Фильмы Раздача-1\Кухня сезон 4 SATRip AVI\Kuhnjya.4-01.SATRip.[www.*другой трекер*].avi
      Format : AVI
      Format/Info : Audio Video Interleave
      File size : 363 MiB
      Duration : 26mn 12s
      Overall bit rate : 1 937 Kbps
      Writing library : VirtualDub build 32817/release
   Video #0
      ID : 0
      Format : MPEG-4 Visual
      Format profile : Advanced Simple@L5
      Format settings, BVOP : 2
      Format settings, QPel : No
      Format settings, GMC : No warppoints
      Format settings, Matrix : Default (MPEG)
      Codec ID : XVID
      Codec ID/Hint : XviD
      Duration : 26mn 12s
      Bit rate : 1 800 Kbps
      Width : 720 pixels
      Height : 400 pixels
      Display aspect ratio : 16:9
      Frame rate : 25.000 fps
      Color space : YUV
      Chroma subsampling : 4:2:0
      Bit depth : 8 bits
      Scan type : Progressive
      Compression mode : Lossy
      Bits/(Pixel*Frame) : 0.250
      Stream size : 337 MiB (93%)
      Writing library : XviD 1.2.1 (UTC 2008-12-04)
   Audio #1
      ID : 1
      Format : MPEG Audio
      Format version : Version 1
      Format profile : Layer 3
      Mode : Joint stereo
      Mode extension : MS Stereo
      Codec ID : 55
      Codec ID/Hint : MP3
      Duration : 26mn 12s
      Bit rate mode : Constant
      Bit rate : 128 Kbps
      Channel(s) : 2 channels
      Sampling rate : 48.0 KHz
      Compression mode : Lossy
      Stream size : 24.0 MiB (7%)
      Alignment : Split accross interleaves
      Interleave, duration : 40 ms (1.00 video frame)
      Interleave, preload duration : 500 ms
picpicpicpicpicpicpicpicpicpic
Для увеличения картинки щелкните мышкой по превью

Этот торрент недоступен для скачивания без регистрации, однако доступен по публичной magnet-ссылке (источники с публичных трекеров). Перед использованием ссылки прочтите, пожалуйста Пользовательское соглашение, а также как можно дольше оставайтесь на раздаче! Для того, чтобы скачать сам торрент-файл (который видит больше источников), а также для того, чтобы поблагодарить релизера, вам необходимо зарегистрироваться. Если регистрироваться лень - вы можете также попробовать скачать релиз по нашим партнерским ссылкам ниже.

[underverse.su].t46381.torrent
Трекер: Зарегистрирован   [ 19.11.2014 15:18 ]  

Статус: проверено (by nemos at 19.11.2014 15:22)
Поблагодарили: 11 человек
Тип торрента: публичный - доступные источники с открытых трекеров: 
Размер: 6,51 GB (занимает 1,49 DVDR, для записи нужно 2 болванки DVDR/RW)
 
 
Похожие темы
Форум Тема Автор Торрент Отв. Посл. сооб.
xUSSR сериалы Кухня / Сезон 2 /Серии 1-20 (20) (Дмитрий Дьяченко) [2013 г., Комедия, семейный, SatRip] degama
0 | 0

13 | 4096

33

26.04.2013 07:10

xUSSR сериалы Кухня / сезон 1 / серии 1-20 (20) (Дмитрий Дьяченко) [2012 г., Комедия, SatRip] Печаль'ka
3 | 2

0 | 1401

80

17.04.2013 13:22

xUSSR сериалы [BD / Remux / BDRip / WEB-DL / HDTV 1080/720р] Кухня / Сезон 5 (Серия:1-20 из 20) (Антон Федотов) [2015 г., комедия, WEB-DL 1080p] nemos
11 | 3

1 | 907

29

06.10.2015 08:18



Последний раз редактировалось: nemos (19.11.2014 15:18), всего редактировалось 15 раз(а)

nemos Пол:Муж

14-Окт-2014 11:53

Раздача обновлена! 20 серий.

Яндекс.Метрика powered by Sphinx


В Н И М А Н И Е
Сайт не распространяет и не хранит электронные версии произведений, а лишь бесплатно и без коммерческой выгоды (не требуя взамен платы,
SMS и т.д.) предоставляет доступ к создаваемому пользователями каталогу ссылок на торрент-файлы, которые содержат только списки хеш-сумм.
Убедительная просьба с жалобами обращаться напрямую к пользователю, разместившему торрент файл.

Вверх