Loading...
Error

Если наступит завтра / If Tomorrow Comes / Серии: 1-3 из 3 / (Джерри Лондон) [1986 г., мелодрама, криминал, приключения, детектив, DVDRip-AVC] MVO

Статистика раздачи
Размер:  4,89 GB   |    Зарегистрирован:  2 года 1 месяц   |    Скачан:  12 раз

Полного источника не было: 1 месяц 21 день

Сидов:  0  |  0 KB/s  ]   Личеров:  0  |  0 KB/s  ]

* - сиды/пиры с внешних источников

   
 
Автор Сообщение

lera_dom 

11-Окт-2014 07:58

Если наступит завтра / If Tomorrow Comes


Год выпуска: 1986
Жанр: мелодрама, криминал, приключения, детектив
Страна: США
Режиссер: Джерри Лондон
В ролях: Том Беренджер, Мэдлин Смит-Осборн, Лиам Нисон, Джеффри Джонс, Ричард Кили, Сюзан Тирелл, Джек Уэстон, Дэвид Кейт, Джон Лафлин, Сюзан Хесс, Лэйн Смит, Джо Кортез, Джордж Ди Сенцо
Сюжет фильма:
Скромная служащая банка Трейси Уитни была счастлива и готовилась стать матерью. Но после того, как её мать покончила жизнь самоубийством, Трейси обвинили в краже, которой она не совершала. Когда её приговарили к тюремному заключению и она попала в тюрьму, Трейси задумала хитроумную месть. Она не переставала думать о побеге, но благодаря своей порядочности она спасает от смерти дочь начальника тюрьмы и получает амнистию. Выйдя на свободу, она неторопливо осуществляет задуманное, ломая жизни главарям мафии Нового Орлеана, города, где жила и погибла ее мать. Она отомстила всем, кто её подставил, но из-за "криминального прошлого" ей закрыта дорога к прежней должности начальника отдела в банке. В итоге Трейси решила пойти на ограбление и получила за это 50 000 долларов. Вскоре она переезжает в Англию, однако слухи о ней как о талантливой грабительнице доходят и до туда. Почти сразу по приземлении в Лондоне на неё выходит некий Гюнтер Хартог, высококлассный мошенник, который хочет использовать её криминальный талант. Он обучает её всему тому, что знает сам, в результате чего она становится воровкой, специализирующейся на самых дерзких ограблениях богачей, наживших свои состояния нечестным путем. И помогает ей в этом очаровательный Джеф, ставший для неё не только конкурентом, но и увлечением.

Качество видео: DVDRip-AVC (Исходник: 3хDVD9)

Продолжительность: 02:12:06 + 01:25:16 + 01:27:32
Формат: MKV
Видео: x264, 768x572, 25 fps, 2100 kbps
Аудио: русский, многоголосый закадровый [НТВ], AC3 2.0, 192 kbps

Код:

General
Unique ID                                : 223354959099440091153159167604376732387 (0xA80899B388574C129F8BF411244402E3)
Complete name                            : D:\Фильмы\Если наступит завтра\Если наступит завтра 1 серия.mkv
Format                                   : Matroska
Format version                           : Version 2
File size                                : 2.12 GiB
Duration                                 : 2h 12mn
Overall bit rate                         : 2 294 Kbps
Encoded date                             : UTC 2014-10-01 16:19:42
Writing application                      : mkvmerge v5.8.0 ('No Sleep / Pillow') built on Sep  2 2012 15:37:04
Writing library                          : libebml v1.2.3 + libmatroska v1.3.0

Video
ID                                       : 1
Format                                   : AVC
Format/Info                              : Advanced Video Codec
Format profile                           : High@L4.1
Format settings, CABAC                   : Yes
Format settings, ReFrames                : 4 frames
Codec ID                                 : V_MPEG4/ISO/AVC
Duration                                 : 2h 12mn
Bit rate                                 : 2 100 Kbps
Width                                    : 768 pixels
Height                                   : 572 pixels
Display aspect ratio                     : 4:3
Frame rate mode                          : Constant
Frame rate                               : 25.000 fps
Color space                              : YUV
Chroma subsampling                       : 4:2:0
Bit depth                                : 8 bits
Scan type                                : Progressive
Bits/(Pixel*Frame)                       : 0.191
Stream size                              : 1.90 GiB (90%)
Writing library                          : x264 core 125 r2208 d9d2288
Encoding settings                        : cabac=1 / ref=4 / deblock=1:-1:-1 / analyse=0x3:0x133 / me=umh / subme=7 / psy=1 / psy_rd=1.00:0.10 / mixed_ref=1 / me_range=16 / chroma_me=1 / trellis=2 / 8x8dct=1 / cqm=0 / deadzone=21,11 / fast_pskip=0 / chroma_qp_offset=-3 / threads=12 / lookahead_threads=2 / sliced_threads=0 / nr=0 / decimate=1 / interlaced=0 / bluray_compat=0 / constrained_intra=0 / bframes=9 / b_pyramid=2 / b_adapt=2 / b_bias=0 / direct=3 / weightb=1 / open_gop=0 / weightp=2 / keyint=250 / keyint_min=25 / scenecut=40 / intra_refresh=0 / rc_lookahead=50 / rc=2pass / mbtree=1 / bitrate=2100 / ratetol=1.0 / qcomp=0.60 / qpmin=0 / qpmax=69 / qpstep=4 / cplxblur=20.0 / qblur=0.5 / ip_ratio=1.40 / aq=1:1.00
Default                                  : Yes
Forced                                   : No

Audio
ID                                       : 2
Format                                   : AC-3
Format/Info                              : Audio Coding 3
Mode extension                           : CM (complete main)
Format settings, Endianness              : Big
Codec ID                                 : A_AC3
Duration                                 : 2h 12mn
Bit rate mode                            : Constant
Bit rate                                 : 192 Kbps
Channel(s)                               : 2 channels
Channel positions                        : Front: L R
Sampling rate                            : 48.0 KHz
Bit depth                                : 16 bits
Compression mode                         : Lossy
Stream size                              : 181 MiB (8%)
Default                                  : Yes
Forced                                   : No
picpicpicpic
Для увеличения картинки щелкните мышкой по превью

Этот торрент недоступен для скачивания без регистрации, однако доступен по публичной magnet-ссылке (источники с публичных трекеров). Перед использованием ссылки прочтите, пожалуйста Пользовательское соглашение, а также как можно дольше оставайтесь на раздаче! Для того, чтобы скачать сам торрент-файл (который видит больше источников), а также для того, чтобы поблагодарить релизера, вам необходимо зарегистрироваться. Если регистрироваться лень - вы можете также попробовать скачать релиз по нашим партнерским ссылкам ниже.

[underverse.su].t44973.torrent
Трекер: Зарегистрирован   [ 11.10.2014 07:58 ]  

Статус: проверено (by Ведьмочка at 11.10.2014 08:17)
Поблагодарили: пока никто не поблагодарил...
Тип торрента: публичный - доступные источники с открытых трекеров: 
Размер: 4,89 GB (занимает 1,12 DVDR, для записи нужно 2 болванки DVDR/RW)
 
 
Похожие темы
Форум Тема Автор Торрент Отв. Посл. сооб.
* Архив Если наступит завтра / If Tomorrow Comes (Джерри Лондон ) [3 серии, 1986 г., Драма, DVDRip] andrej-ku

1 | 569

29.08.2010 23:52


Яндекс.Метрика powered by Sphinx


В Н И М А Н И Е
Сайт не распространяет и не хранит электронные версии произведений, а лишь бесплатно и без коммерческой выгоды (не требуя взамен платы,
SMS и т.д.) предоставляет доступ к создаваемому пользователями каталогу ссылок на торрент-файлы, которые содержат только списки хеш-сумм.
Убедительная просьба с жалобами обращаться напрямую к пользователю, разместившему торрент файл.

Вверх