Loading...
Error

Обмен (1-4 серии из 4) (Виктор Татарский) [2014 г., боевик, криминал, SatRip]

Статистика раздачи
Размер:  2,3 GB   |    Зарегистрирован:  2 года 1 месяц   |    Скачан:  36 раз
Сидов:  1  |  196 KB/s  ]   Личеров:  0  |  0 KB/s  ]

* - сиды/пиры с внешних источников

   
 
Автор Сообщение

nemos Пол:Муж

10-Окт-2014 18:21

Обмен


Год выпуска: 2014
Жанр: боевик, криминал
Страна: Россия
Режиссер: Виктор Татарский
В ролях: Алексей Комашко, Светлана Щедрина, Игорь Павлов, Максим Дахненко, Андрей Гульнев, Вячеслав Аркунов, Роман Агеев, Валерия Шкирандо, Евгений Добряков, Сергей Смирнов
Сюжет фильма:
Майор Поборцев расследует дело о серии дерзких налетов на банки. В процессе расследования ему удается захватить одного из шести налетчиков. Для этого следователю приходится также дерзко нарушить инструкцию, но попытаться спасти жизнь девушки-заложницы. При задержании бандит обещает Поборцеву, что еще заставит его пожалеть. Только кто обращает внимание на угрозы задержанных преступников? Майор получает благодарность от руководства, премию на отпуск и строгий выговор за проявленную самодеятельность. Пока его жена Наталья выбирает путевку на море и собирает чемоданы, сам Поборцев, несмотря на официальный отпуск, помогает коллегам в расследовании. Он с самого начала догадывается, что бандиты специально пустили полицию по ложному следу. Когда второй налетчик оказывается почти в руках у следователей, кто-то успевает его предупредить. О задержании, помимо Поборцева, знали пять человек. Все они теперь под подозрением, а подполковник Тепляков подозревает и самого майора. И в этот момент первый налетчик, задержанный Поборцевым, умудряется выполнить свое обещание, находясь за решеткой.Теперь следователь вынужден пойти на обмен - ему нужно довести дело до конца, но играть придется по правилам бандитов…


Качество видео: SatRip

Продолжительность: 00:43:16 серия
Формат: AVI
Видео: XviD, 720x448, 1800 kbps
Аудио: русский, MP3 2.0, 128 kbps

Код:

D:\Фильмы Раздача-1\Obmen.2014.SATRip\Obmen.04.2014.SATRip.avi
   General
      Complete name : D:\Фильмы Раздача-1\Obmen.2014.SATRip\Obmen.04.2014.SATRip.avi
      Format : AVI
      Format/Info : Audio Video Interleave
      File size : 600 MiB
      Duration : 43mn 16s
      Overall bit rate : 1 938 Kbps
      Writing library : VirtualDub build 32817/release
   Video #0
      ID : 0
      Format : MPEG-4 Visual
      Format profile : Advanced Simple@L5
      Format settings, BVOP : 2
      Format settings, QPel : No
      Format settings, GMC : No warppoints
      Format settings, Matrix : Default (MPEG)
      Codec ID : XVID
      Codec ID/Hint : XviD
      Duration : 43mn 16s
      Bit rate : 1 800 Kbps
      Width : 720 pixels
      Height : 448 pixels
      Display aspect ratio : 1.607
      Frame rate : 25.000 fps
      Color space : YUV
      Chroma subsampling : 4:2:0
      Bit depth : 8 bits
      Scan type : Progressive
      Compression mode : Lossy
      Bits/(Pixel*Frame) : 0.223
      Stream size : 557 MiB (93%)
      Writing library : XviD 1.2.1 (UTC 2008-12-04)
   Audio #1
      ID : 1
      Format : MPEG Audio
      Format version : Version 1
      Format profile : Layer 3
      Mode : Joint stereo
      Codec ID : 55
      Codec ID/Hint : MP3
      Duration : 43mn 16s
      Bit rate mode : Constant
      Bit rate : 128 Kbps
      Channel(s) : 2 channels
      Sampling rate : 48.0 KHz
      Compression mode : Lossy
      Stream size : 39.6 MiB (7%)
      Alignment : Split accross interleaves
      Interleave, duration : 40 ms (1.00 video frame)
      Interleave, preload duration : 500 ms
picpicpicpicpicpicpicpicpicpic
Для увеличения картинки щелкните мышкой по превью

Этот торрент недоступен для скачивания без регистрации, однако доступен по публичной magnet-ссылке (источники с публичных трекеров). Перед использованием ссылки прочтите, пожалуйста Пользовательское соглашение, а также как можно дольше оставайтесь на раздаче! Для того, чтобы скачать сам торрент-файл (который видит больше источников), а также для того, чтобы поблагодарить релизера, вам необходимо зарегистрироваться. Если регистрироваться лень - вы можете также попробовать скачать релиз по нашим партнерским ссылкам ниже.

[underverse.su].t44960.torrent
Трекер: Зарегистрирован   [ 10.10.2014 18:21 ]  

Статус: проверено (by nemos at 10.10.2014 18:21)
Поблагодарили: 3 человека
Тип торрента: публичный - доступные источники с открытых трекеров: 
Размер: 2,3 GB (занимает 0,53 DVDR, для записи нужно 1 болванка DVDR/RW)
 
 

Яндекс.Метрика powered by Sphinx


В Н И М А Н И Е
Сайт не распространяет и не хранит электронные версии произведений, а лишь бесплатно и без коммерческой выгоды (не требуя взамен платы,
SMS и т.д.) предоставляет доступ к создаваемому пользователями каталогу ссылок на торрент-файлы, которые содержат только списки хеш-сумм.
Убедительная просьба с жалобами обращаться напрямую к пользователю, разместившему торрент файл.

Вверх