Loading...
Error

Люди Икс: Дни минувшего будущего / X-Men: Days of Future Past (Брайан Сингер) [2014 г., фантастика, боевик, триллер, приключения, BDRip] Dub + Original + Sub (Rus,Ukr,Eng) HQ Underverse

Статистика раздачи
Размер:  2,18 GB   |    Зарегистрирован:  2 года 1 месяц   |    Скачан:  34 раза
Сидов:  2  |  0 KB/s  ]   Личеров:  0  |  0 KB/s  ]

* - сиды/пиры с внешних источников

   
 
Автор Сообщение

HQ Underverse 

08-Окт-2014 14:30

Люди Икс: Дни минувшего будущего / X-Men: Days of Future Past


Год выпуска: 2014
Жанр: фантастика, боевик, триллер, приключения
Страна: США , Великобритания
Режиссер: Брайан Сингер
В ролях: Майкл Фассбендер, Джеймс МакЭвой, Хью Джекман, Дженнифер Лоуренс, Иэн МакКеллен, Патрик Стюарт, Николас Холт, Эллен Пейдж, Холли Берри, Питер Динклэйдж
Сюжет фильма:
В недалёком будущем мутанты близки к истреблению роботами-охотниками на мутантов Стражами. Единственная надежда для мутантов выжить — предотвратить череду роковых событий, приведших к появлению Стражей. С помощью своих способностей, Китти Прайд перемещает сознание Росомахи в его молодое тело в 1973 год. В прошлом всё оказывается не так радужно: молодой Профессор Икс окончательно разочарован в своих идеях, Магнето содержится в тюрьме глубоко под землёй, а человечество не знает как реагировать на широкое появление мутантов…

  • Мировая премьера: 10 мая 2014
  • Российская премьера: 2 октября 2014, «Двадцатый Век Фокс СНГ»

/
Качество видео: BDRip

Продолжительность: 02:11:35
Формат: avi
Видео: XviD, 720x304, 1915 kbps
Аудио #1: русский, дублированный [лицензия], AC3 5.1, 448 kbps
Аудио #2: английский, оригинал, AC3 5.1, 448 kbps (отдельным файлом: здесь)
Субтитры #1: внешние, SRT, русский
Субтитры #3: внешние, SRT, русский (форсированные)
Субтитры #4: внешние, SRT, английский
Субтитры #2: внешние, SRT, английский (форсированные)
Субтитры #5: внешние, SRT, украинский

Код:

General
Complete name                    : Y:\Люди Икс - Дни Минувшего Будущего\X.-.Men.Days.Of.Future.Past.2014.BDRip.XviD.AC3.Rus.D.HQ.Underverse.avi
Format                           : AVI
Format/Info                      : Audio Video Interleave
Format profile                   : OpenDML
File size                        : 2.18 GiB
Duration                         : 2h 11mn
Overall bit rate                 : 2 376 Kbps
Writing application              : VirtualDubMod 1.5.10.3 | www.virtualdub-fr.org || (build 2550/release)
Writing library                  : VirtualDubMod build 2550/release

Video
ID                               : 0
Format                           : MPEG-4 Visual
Format profile                   : Streaming Video@L1
Format settings, BVOP            : Yes
Format settings, QPel            : No
Format settings, GMC             : No warppoints
Format settings, Matrix          : Custom
Codec ID                         : XVID
Codec ID/Hint                    : XviD
Duration                         : 2h 11mn
Bit rate                         : 1 915 Kbps
Width                            : 720 pixels
Height                           : 304 pixels
Display aspect ratio             : 2.35
Frame rate                       : 23.976 fps
Resolution                       : 24 bits
Colorimetry                      : 4:2:0
Scan type                        : Progressive
Bits/(Pixel*Frame)               : 0.365
Stream size                      : 1.76 GiB (81%)
Writing library                  : XviD 64

Audio
ID                               : 1
Format                           : AC-3
Format/Info                      : Audio Coding 3
Codec ID                         : 2000
Duration                         : 2h 11mn
Bit rate mode                    : Constant
Bit rate                         : 448 Kbps
Channel(s)                       : 6 channels
Channel positions                : Front: L C R, Surround: L R, LFE
Sampling rate                    : 48.0 KHz
Stream size                      : 422 MiB (19%)
Alignment                        : Split accross interleaves
Interleave, duration             : 42 ms (1.00 video frame)
Interleave, preload duration     : 500 ms

General
Complete name                    : Y:\Люди Икс - Дни Минувшего Будущего\X.-.Men.Days.Of.Future.Past.2014.BDRip.XviD.AC3.Rus.D.HQ.Underverse.ENG.ac3
Format                           : AC-3
Format/Info                      : Audio Coding 3
File size                        : 422 MiB
Duration                         : 2h 11mn
Overall bit rate                 : 448 Kbps

Audio
Format                           : AC-3
Format/Info                      : Audio Coding 3
Duration                         : 2h 11mn
Bit rate mode                    : Constant
Bit rate                         : 448 Kbps
Channel(s)                       : 6 channels
Channel positions                : Front: L C R, Surround: L R, LFE
Sampling rate                    : 48.0 KHz
Stream size                      : 422 MiB (100%)

Релиз группы:

picpicpic
Для увеличения картинки щелкните мышкой по превью

Этот торрент недоступен для скачивания без регистрации, однако доступен по публичной magnet-ссылке (источники с публичных трекеров). Перед использованием ссылки прочтите, пожалуйста Пользовательское соглашение, а также как можно дольше оставайтесь на раздаче! Для того, чтобы скачать сам торрент-файл (который видит больше источников), а также для того, чтобы поблагодарить релизера, вам необходимо зарегистрироваться. Если регистрироваться лень - вы можете также попробовать скачать релиз по нашим партнерским ссылкам ниже.

[underverse.su].t44868.torrent
Трекер: Зарегистрирован   [ 08.10.2014 14:30 ]  

Статус: проверено (by HQ Underverse at 08.10.2014 14:30)
Поблагодарили: пока никто не поблагодарил...
Тип торрента: публичный - доступные источники с открытых трекеров: 
Размер: 2,18 GB (занимает 1/2 DVDR, для записи нужно 1 болванка DVDR/RW)
 
 
Похожие темы
Форум Тема Автор Торрент Отв. Посл. сооб.
Зарубежное кино [DVDRip, Low-Res HDRip, и т.д.] Люди Икс: Начало. Росомаха / X-Men Origins: Wolverine (Гэвин Худ) [2009 г., фантастика, боевик, триллер, фэнтези, DVDRip] Добрый жмот
0 | 0

6 | 1963

58

21.09.2009 20:14

Зарубежное кино [DVDRip, Low-Res HDRip, и т.д.] Люди Икс: Первый класс / X-Men: First Class (Мэттью Вон) [2011 г., фантастика, боевик, драма, приключения, DVDRip] RG NewCinema
0 | 0

3 | 1085

34

07.09.2011 20:00

Зарубежное кино [DVDRip, Low-Res HDRip, и т.д.] Люди Икс: Первый класс / X-Men: First Class (Мэттью Вон / Matthew Vaughn) [2011, фантастика, боевик, драма, приключения, DVDRip] WeaSel
0 | 0

0 | 931

14

11.07.2011 20:05

Зарубежное кино [DVDRip, Low-Res HDRip, и т.д.] Люди Икс: Апокалипсис / X-Men: Apocalypse (Брайан Сингер / Bryan Singer) [2016 г.,фантастика, боевик, приключения, BDRip] Dub + hardsub (Rus) 90ytr90
5 | 4

0 | 298

10

14.09.2016 15:18

Зарубежное кино [DVDRip, Low-Res HDRip, и т.д.] Люди Икс: Дни минувшего будущего / X-Men: Days of Future Past (Брайан Сингер / Bryan Singer) [2014 г., фантастика, боевик, триллер, приключения, BDRip] Dub 90ytr90
19 | 0

0 | 784

42

03.10.2014 04:41

Зарубежное кино [DVDRip, Low-Res HDRip, и т.д.] Люди Икс: Дни минувшего будущего / X-Men: Days of Future Past (Брайан Сингер / Bryan Singer) [2014 г., фантастика, боевик, триллер, приключения, HDRip-AVC] Dub 90ytr90
4 | 0

0 | 583

29

03.10.2014 04:48

Зарубежное кино [DVDRip, Low-Res HDRip, и т.д.] Люди Икс: Дни минувшего будущего / X-Men: Days of Future Past (Брайан Сингер) [2014 г., Фантастика, Боевик, Триллер, Приключения, BDRip-AVC] Dub (RUS, Лицензия) + Dub (UKR, Лицензия) + Original (ENG)... Ведьмочка
1 | 0

0 | 761

9

03.10.2014 14:07

Зарубежное кино [DVDRip, Low-Res HDRip, и т.д.] Люди Икс: Дни минувшего будущего / X-Men: Days of Future Past (Брайан Сингер) [2014 г., Фантастика, Боевик, Триллер, Приключения, BDRip-AVC] Dub (RUS, Лицензия) + Original (ENG) + Subs (RUS, ENG) Ведьмочка
1 | 0

0 | 781

17

03.10.2014 14:11

Зарубежное кино [DVDRip, Low-Res HDRip, и т.д.] Люди Икс: Апокалипсис / X-Men: Apocalypse (Брайан Сингер / Bryan Singer) [2016 г.,фантастика, боевик, приключения, BDRip] Dub + Original (Eng) + Sub (Rus, Eng) 90ytr90
57 | 3

0 | 313

4

22.10.2016 11:03

Зарубежное кино [DVDRip, Low-Res HDRip, и т.д.] Люди Икс: Апокалипсис / X-Men: Apocalypse (Брайан Сингер / Bryan Singer) [2016 г.,фантастика, боевик, приключения, HDRip] Dub + hardsub (Rus) 90ytr90
418 | 9

0 | 304

9

22.10.2016 10:50


Яндекс.Метрика powered by Sphinx


В Н И М А Н И Е
Сайт не распространяет и не хранит электронные версии произведений, а лишь бесплатно и без коммерческой выгоды (не требуя взамен платы,
SMS и т.д.) предоставляет доступ к создаваемому пользователями каталогу ссылок на торрент-файлы, которые содержат только списки хеш-сумм.
Убедительная просьба с жалобами обращаться напрямую к пользователю, разместившему торрент файл.

Вверх