Loading...
Error

Карпов / Сезон 3 / Серия 1-32 (из 32)( Иван Щёголев, Владислав Николаев) [2014 г., криминальный, детектив, драма, SatRip]

Статистика раздачи
Размер:  19,31 GB   |    Зарегистрирован:  2 года 1 месяц   |    Скачан:  13 раз

Полного источника не было: 3 месяца 30 дней

Сидов:  0  |  0 KB/s  ]   Личеров:  0  |  0 KB/s  ]

* - сиды/пиры с внешних источников

   
 
Автор Сообщение

nemos Пол:Муж

07-Окт-2014 13:03

Карпов Сезон 3


Год выпуска: 2014
Жанр: криминальный, детектив, драма
Страна: Россия
Режиссер: Иван Щёголев, Владислав Николаев
В ролях: Владислав Котлярский, Юлия Майборода, Степан Рожнов, Анатолий Петров, Дмитрий Блажко, Николай Козак, Денис Рожков, Наталья Гудкова, Мария Болтнева, Юрий Пономаренко, Владислав Шкляев, Светлана Васильева, Егор Баринов, Евгений Смирнов-Иваницкий, Геннадий Христенко, Владимир Яковлев (II), Дмитрий Мазуров, Олег Кассин, Виктория Тарасова, Григорий Иванец, Юлия Юрченко, Ярослав Леонов, Валерий Смекалов, Михаил Инчин, Дмитрий Воронцов (II)
Сюжет фильма:
В жизни добро редко побеждает зло, и одолеть его может только другое зло. И пока это так, он всегда будет нужен. Стас Карпов и его старые друзья возвращаются на НТВ!
После серьезных потрясений бывший полковник Станислав Карпов пытается забыть прошлое и старается прослыть обычным семьянином. Правда, это не мешает Стасу и его единомышленникам продолжить давно начатый дерзкий проект – разобраться по-своему с обнаглевшими преступниками, которым нипочем все законы и правила. Так, они объявляют войну банде педофилов, среди которых окажутся и очень влиятельные люди. «По-тихому» убирая одного за другим торговцев детьми, Карпов и его команда каждый раз маскируют их гибель под несчастный случай. При этом все прекрасно понимают: окончательно истребить врага невозможно, на место одних будут приходить другие. Но бороться с этим злом необходимо, даже если методы будут выходить за рамки общепринятых понятий о добре, морали и чести.
Третий сезон готовит крутые перемены для близкого окружения Карпова. Иващук неожиданно для всех заинтересуется религией и по-своему начнет использовать свое новое увлечение. Петров, пытаясь сдерживать разгул криминала, однажды поймет, что справиться с натиском преступной махины у него просто нет сил. Антошина ждет тяжелое личное испытание: он выяснит, кто на самом деле отец Кирилла – сына Насти, и это известие станет ударом не только для него, но и для самой Насти. Заметные перемены произойдут и с подругой Карпова – Светланой…
Сам Карпов, несмотря на все свои усилия измениться к лучшему, очень скоро почувствует себя в шкуре тех, кого совсем недавно сажал за решетку. И только одна нежданная встреча перевернет его жизнь с ног на голову и заставит понять, чего ему действительно хочется добиться. Кроме того, впервые за много лет Стас Карпов вернется в ОВД «Пятницкий»! А вот с какой целью и чем это закончится – смотрите в долгожданном продолжении сериала «Карпов» на НТВ.


Качество видео: SatRip

Продолжительность: 00:42:44 серия
Формат: AVI
Видео: XviD, 720x448, 1 792 kbps
Аудио: русский, MP3 2.0, 128 kbps
D:\Фильмы Раздача-1\Карпов сезон 3 SATRip AVI\Karpov.3.01.SATRip.(.avi)
General
Complete name : D:\Фильмы Раздача-1\Карпов сезон 3 SATRip AVI\Karpov.3.01.SATRip.(.avi)
Format : AVI
Format/Info : Audio Video Interleave
File size : 590 MiB
Duration : 42mn 44s
Overall bit rate : 1 930 Kbps
Writing application : VirtualDubMod 1.5.10.2 (build 2540/release)
Writing library : VirtualDub build 29808/release
Video #0
ID : 0
Format : MPEG-4 Visual
Format profile : Advanced Simple@L5
Format settings, BVOP : 2
Format settings, QPel : No
Format settings, GMC : No warppoints
Format settings, Matrix : Default (H.263)
Muxing mode : Packed bitstream
Codec ID : XVID
Codec ID/Hint : XviD
Duration : 42mn 44s
Bit rate : 1 792 Kbps
Width : 720 pixels
Height : 448 pixels
Display aspect ratio : 1.607
Frame rate : 25.000 fps
Color space : YUV
Chroma subsampling : 4:2:0
Bit depth : 8 bits
Scan type : Progressive
Compression mode : Lossy
Bits/(Pixel*Frame) : 0.222
Stream size : 548 MiB (93%)
Writing library : XviD 65
Audio #1
ID : 1
Format : MPEG Audio
Format version : Version 1
Format profile : Layer 3
Mode : Joint stereo
Mode extension : MS Stereo
Codec ID : 55
Codec ID/Hint : MP3
Duration : 42mn 44s
Bit rate mode : Constant
Bit rate : 128 Kbps
Channel(s) : 2 channels
Sampling rate : 48.0 KHz
Compression mode : Lossy
Stream size : 39.1 MiB (7%)
Alignment : Aligned on interleaves
Interleave, duration : 40 ms (1.00 video frame)
Interleave, preload duration : 504 ms
picpicpicpicpicpicpicpic
Для увеличения картинки щелкните мышкой по превью

Этот торрент недоступен для скачивания без регистрации, однако доступен по публичной magnet-ссылке (источники с публичных трекеров). Перед использованием ссылки прочтите, пожалуйста Пользовательское соглашение, а также как можно дольше оставайтесь на раздаче! Для того, чтобы скачать сам торрент-файл (который видит больше источников), а также для того, чтобы поблагодарить релизера, вам необходимо зарегистрироваться. Если регистрироваться лень - вы можете также попробовать скачать релиз по нашим партнерским ссылкам ниже.

[underverse.su].t45729.torrent
Трекер: Зарегистрирован   [ 30.10.2014 17:01 ]  

Статус: проверено (by nemos at 30.10.2014 17:02)
Поблагодарили: 1 человек
Тип торрента: публичный - доступные источники с открытых трекеров: 
Размер: 19,31 GB (занимает 4,41 DVDR, для записи нужно 5 болванок DVDR/RW)
 
 
Похожие темы
Форум Тема Автор Торрент Отв. Посл. сооб.
xUSSR сериалы Карпов / Сезон: 1 Серии: 1 - 32 из 32 (Игорь Ромащенко, Иван Щёголев) [2012, криминал, SATRip] 90ytr90
0 | 0

0 | 1635

17

25.09.2012 17:13

xUSSR сериалы Карпов / Серии: 1-32 (32)(Игорь Ромащенко, Иван Щёголев) [2012 г., Детектив, Криминал, SATRip] nemos
0 | 1

13 | 1521

3

12.10.2012 14:53

xUSSR сериалы Карпов / Серии 1-32 (32) (Игорь Ромащенко, Иван Щёголев, Гюзель Киреева) [2012 г., Детектив, криминал, драма, DVDRip] Чертёнок
2 | 4

0 | 860

14

16.05.2013 12:58

xUSSR сериалы Карпов / Сезон 2 / Серия 1-30 (30) (Иван Щёголев, Сергей Лесогоров) [2013 г., детектив, криминальный, драма, SatRip] nemos
46 | 37

4 | 6701

24

10.10.2013 15:07

xUSSR сериалы Карпов / Сезон 3 / Серия 1-32 (из 32) (Иван Щёголев, Сергей Лесогоров) [2014 г., криминальный, детектив, драма, WEB-DLRip] nemos
1 | 1

1 | 1804

11

07.10.2014 21:17



Последний раз редактировалось: nemos (06.11.2014 06:32), всего редактировалось 18 раз(а)

nemos Пол:Муж

07-Окт-2014 21:18

Раздача обновлена! 32 серии.

Яндекс.Метрика powered by Sphinx


В Н И М А Н И Е
Сайт не распространяет и не хранит электронные версии произведений, а лишь бесплатно и без коммерческой выгоды (не требуя взамен платы,
SMS и т.д.) предоставляет доступ к создаваемому пользователями каталогу ссылок на торрент-файлы, которые содержат только списки хеш-сумм.
Убедительная просьба с жалобами обращаться напрямую к пользователю, разместившему торрент файл.

Вверх