Loading...
Error

Сучьи войны (Сучья война) (1-8 серии из 8) (Николай Борц) [2014 г., военный, драма, исторический, SatRip]

Статистика раздачи
Размер:  5 GB   |    Зарегистрирован:  2 года 1 месяц   |    Скачан:  57 раз

Полного источника не было: 2 часа 55 минут

Сидов:  0  |  0 KB/s  ]   Личеров:  0  |  0 KB/s  ]

* - сиды/пиры с внешних источников

   
 
Автор Сообщение

nemos Пол:Муж

07-Окт-2014 10:49

Сучьи войны (Сучья война)


Год выпуска: 2014
Жанр: военный, драма, исторический
Страна: Россия
Режиссер: Николай Борц
В ролях: Алексей Демидов, Карина Андоленко, Михаил Пшеничный, Полина Уварова, Василиса Немцова, Алеся Гузько, Агриппина Стеклова, Константин Юшкевич, Андрей Иванов (VI), Янина Исаичкина, Анастасия Привалова, Алика Котова
Сюжет фильма:
"Сучьей войной" называют безжалостное противостояние между тюремными заключенными которое длилось десять лет - с середины сороковых до середины пятидесятых годов прошлого столетия. Осужденные за уголовные преступления разделились на два противоборствующих лагеря. По одну сторону баррикад находились "воры в законе", которые привыкли жить "по понятиям" и ни при каких обстоятельствах не вступать в переговоры с представителями власти. А с другой стороны были "суки" - заключенные, которые раскаялись в совершении преступления, искренне хотели исправиться. Большинство "сук" во времена Великой Отечественной войны воевали на фронте. Со временем к "сукам" присоединились воры, которые по тем или иным причинам не желали жить "по блатным" законам...
Качество видео: SatRip

Продолжительность: 00:49:12 серия
Формат: AVI
Видео: DivX, 720x384, 1650 kbps
Аудио: русский, MP3 2.0, 192 kbps

Код:

D:\Фильмы Раздача-1\Suchjy.vojny.2014.DivX.SATRip.ExKinoRay\Suchjy.vojny.(1.serija.iz.8).2014.DivX.SATRip.ExKinoRay.avi
   General
      Complete name : D:\Фильмы Раздача-1\Suchjy.vojny.2014.DivX.SATRip.ExKinoRay\Suchjy.vojny.(1.serija.iz.8).2014.DivX.SATRip.ExKinoRay.avi
      Format : AVI
      Format/Info : Audio Video Interleave
      File size : 652 MiB
      Duration : 49mn 12s
      Overall bit rate : 1 852 Kbps
      Writing library : Boilsoft AVI tool build 1/release
   Video #0
      ID : 0
      Format : MPEG-4 Visual
      Format settings, BVOP : 1
      Format settings, QPel : No
      Format settings, GMC : No warppoints
      Format settings, Matrix : Default (H.263)
      Muxing mode : Packed bitstream
      Codec ID : DX50
      Codec ID/Hint : DivX 5
      Duration : 49mn 12s
      Bit rate : 1 650 Kbps
      Width : 720 pixels
      Height : 384 pixels
      Display aspect ratio : 1.85:1
      Frame rate : 25.000 fps
      Color space : YUV
      Chroma subsampling : 4:2:0
      Bit depth : 8 bits
      Scan type : Progressive
      Compression mode : Lossy
      Bits/(Pixel*Frame) : 0.239
      Stream size : 581 MiB (89%)
      Writing library : DivX 6.8.5 (UTC 2009-08-20)
   Audio #1
      ID : 1
      Format : MPEG Audio
      Format version : Version 1
      Format profile : Layer 3
      Mode : Joint stereo
      Codec ID : 55
      Codec ID/Hint : MP3
      Duration : 49mn 12s
      Bit rate mode : Constant
      Bit rate : 192 Kbps
      Channel(s) : 2 channels
      Sampling rate : 48.0 KHz
      Compression mode : Lossy
      Stream size : 67.6 MiB (10%)
      Alignment : Split accross interleaves
      Interleave, duration : 40 ms (1.00 video frame)
      Interleave, preload duration : 500 ms
picpicpicpicpicpicpicpicpicpic
Для увеличения картинки щелкните мышкой по превью

Этот торрент недоступен для скачивания без регистрации, однако доступен по публичной magnet-ссылке (источники с публичных трекеров). Перед использованием ссылки прочтите, пожалуйста Пользовательское соглашение, а также как можно дольше оставайтесь на раздаче! Для того, чтобы скачать сам торрент-файл (который видит больше источников), а также для того, чтобы поблагодарить релизера, вам необходимо зарегистрироваться. Если регистрироваться лень - вы можете также попробовать скачать релиз по нашим партнерским ссылкам ниже.

[underverse.su].t44958.torrent
Трекер: Зарегистрирован   [ 10.10.2014 17:45 ]  

Статус: проверено (by nemos at 10.10.2014 17:45)
Поблагодарили: 2 человека
Тип торрента: публичный - доступные источники с открытых трекеров: 
Размер: 5 GB (занимает 1,14 DVDR, для записи нужно 2 болванки DVDR/RW)
 
 


Последний раз редактировалось: nemos (06.11.2014 06:31), всего редактировалось 5 раз(а)

nemos Пол:Муж

07-Окт-2014 21:20

Раздача обновлена! 8 серий.

Яндекс.Метрика powered by Sphinx


В Н И М А Н И Е
Сайт не распространяет и не хранит электронные версии произведений, а лишь бесплатно и без коммерческой выгоды (не требуя взамен платы,
SMS и т.д.) предоставляет доступ к создаваемому пользователями каталогу ссылок на торрент-файлы, которые содержат только списки хеш-сумм.
Убедительная просьба с жалобами обращаться напрямую к пользователю, разместившему торрент файл.

Вверх