Loading...
Error

Карпов / Сезон 3 / Серия 1-32 (из 32) (Иван Щёголев, Сергей Лесогоров) [2014 г., криминальный, детектив, драма, WEB-DLRip]

Статистика раздачи
Размер:  22,05 GB   |    Зарегистрирован:  2 года 1 месяц   |    Скачан:  11 раз

Полного источника не было: 1 месяц 27 дней

Сидов:  0  |  0 KB/s  ]   Личеров:  0  |  0 KB/s  ]

* - сиды/пиры с внешних источников

   
 
Автор Сообщение

nemos Пол:Муж

07-Окт-2014 10:01

Карпов 3


Год выпуска: 2014
Жанр: криминальный, детектив, драма
Страна: Россия
Режиссер: Иван Щёголев, Сергей Лесогоров
В ролях: Владислав Котлярский, Степан Рожнов, Николай Козак, Юлия Майборода, Андрей Сорока, Виктория Тарасова, Дмитрий Мазуров, Тимур Ефременков, Дмитрий Блажко, Денис Рожков, Ева Авеева, Мария Болонкина, Владимир Фекленко, Владимир Яковлев, Мария Рассказова, Татьяна Исаева, Анатолий Петров, Екатерина Маликова, Наталья Гудкова, Мария Болтнева, Александр Бобров, Александр Касаткин, Ольга Шеховцова, Валерий Новиков, Александр Павленко, Олег Евтеев, Екатерина Шмакова, Анастасия Маринина
Сюжет фильма:
В третьей части сериала полюбившиеся зрителю герои объявят войну банде торговцев детьми и их клиентам-педофилам. Карпов и его компания примут решение расправиться с торговцами детьми «по-тихому», каждый раз маскируя их гибель под несчастный случай. Но, между тем, бывшие менты прекрасно понимают: истребить преступников до конца невозможно. И на их место непременно придут новые.


Качество видео: WEB-DLRip

Продолжительность: 00:43:08 серия
Формат: MKV
Видео: MPEG-4 AVC, 1024x576, 2000 kbps
Аудио: русский, AC3 2.0, 192 kbps

Код:

D:\Фильмы Раздача-1\Karpov.3.2014.WEB-DLRip(AVC)\Karpov.3.2014.WEB-DLRip(AVC)_01.serija.mkv
   General
      Unique ID : 242972602143397901318993141908000393313 (0xB6CAD22DEE92F603A980D45AEA42C861)
      Complete name : D:\Фильмы Раздача-1\Karpov.3.2014.WEB-DLRip(AVC)\Karpov.3.2014.WEB-DLRip(AVC)_01.serija.mkv
      Format : Matroska
      Format version : Version 4 / Version 2
      File size : 675 MiB
      Duration : 43mn 8s
      Overall bit rate mode : Constant
      Overall bit rate : 2 188 Kbps
      Encoded date : UTC 2014-10-06 18:54:00
      Writing application : mkvmerge v7.2.0 ('On Every Street') 32bit built on Sep 13 2014 15:42:11
      Writing library : libebml v1.3.0 + libmatroska v1.4.1
      DURATION : 00:43:08.000000000
      NUMBER_OF_FRAMES : 80875
      NUMBER_OF_BYTES : 62112000
      _STATISTICS_WRITING_APP : mkvmerge v7.2.0 ('On Every Street') 32bit built on Sep 13 2014 15:42:11
      _STATISTICS_WRITING_DATE_UTC : 2014-10-06 18:54:00
      _STATISTICS_TAGS : BPS DURATION NUMBER_OF_FRAMES NUMBER_OF_BYTES
   Video #1
      ID : 1
      Format : AVC
      Format/Info : Advanced Video Codec
      Format profile : Main@L3.1
      Format settings, CABAC : Yes
      Format settings, ReFrames : 2 frames
      Codec ID : V_MPEG4/ISO/AVC
      Duration : 43mn 8s
      Bit rate mode : Constant
      Bit rate : 2 000 Kbps
      Width : 1 024 pixels
      Height : 576 pixels
      Display aspect ratio : 16:9
      Frame rate mode : Constant
      Frame rate : 25.000 fps
      Color space : YUV
      Chroma subsampling : 4:2:0
      Bit depth : 8 bits
      Scan type : Progressive
      Bits/(Pixel*Frame) : 0.136
      Stream size : 602 MiB (89%)
      Language : Russian
      Default : Yes
      Forced : No
      DURATION : 00:43:07.960000000
      NUMBER_OF_FRAMES : 64699
      NUMBER_OF_BYTES : 645079588
      _STATISTICS_WRITING_APP : mkvmerge v7.2.0 ('On Every Street') 32bit built on Sep 13 2014 15:42:11
      _STATISTICS_WRITING_DATE_UTC : 2014-10-06 18:54:00
      _STATISTICS_TAGS : BPS DURATION NUMBER_OF_FRAMES NUMBER_OF_BYTES
   Audio #2
      ID : 2
      Format : AC-3
      Format/Info : Audio Coding 3
      Mode extension : CM (complete main)
      Format settings, Endianness : Big
      Codec ID : A_AC3
      Duration : 43mn 8s
      Bit rate mode : Constant
      Bit rate : 192 Kbps
      Channel(s) : 2 channels
      Channel positions : Front: L R
      Sampling rate : 48.0 KHz
      Bit depth : 16 bits
      Compression mode : Lossy
      Delay relative to video : -200ms
      Stream size : 59.2 MiB (9%)
      Language : Russian
      Default : Yes
      Forced : No
picpicpicpicpicpicpicpic
Для увеличения картинки щелкните мышкой по превью

Этот торрент недоступен для скачивания без регистрации, однако доступен по публичной magnet-ссылке (источники с публичных трекеров). Перед использованием ссылки прочтите, пожалуйста Пользовательское соглашение, а также как можно дольше оставайтесь на раздаче! Для того, чтобы скачать сам торрент-файл (который видит больше источников), а также для того, чтобы поблагодарить релизера, вам необходимо зарегистрироваться. Если регистрироваться лень - вы можете также попробовать скачать релиз по нашим партнерским ссылкам ниже.

[underverse.su].t45742.torrent
Трекер: Зарегистрирован   [ 30.10.2014 20:22 ]  

Статус: проверено (by nemos at 30.10.2014 20:23)
Поблагодарили: 1 человек
Тип торрента: публичный - доступные источники с открытых трекеров: 
Размер: 22,05 GB (занимает 5,04 DVDR, для записи нужно 6 болванок DVDR/RW)
 
 
Похожие темы
Форум Тема Автор Торрент Отв. Посл. сооб.
xUSSR сериалы Карпов / Сезон: 1 Серии: 1 - 32 из 32 (Игорь Ромащенко, Иван Щёголев) [2012, криминал, SATRip] 90ytr90
0 | 0

0 | 1631

17

25.09.2012 17:13

xUSSR сериалы Карпов / Серии: 1-32 (32)(Игорь Ромащенко, Иван Щёголев) [2012 г., Детектив, Криминал, SATRip] nemos
0 | 1

13 | 1516

3

12.10.2012 14:53

xUSSR сериалы Карпов / Серии 1-32 (32) (Игорь Ромащенко, Иван Щёголев, Гюзель Киреева) [2012 г., Детектив, криминал, драма, DVDRip] Чертёнок
2 | 4

0 | 858

14

16.05.2013 12:58

xUSSR сериалы Карпов / Сезон 2 / Серия 1-30 (30) (Иван Щёголев, Сергей Лесогоров) [2013 г., детектив, криминальный, драма, SatRip] nemos
46 | 37

4 | 6699

24

10.10.2013 15:07

xUSSR сериалы Карпов / Сезон 3 / Серия 1-32 (из 32)( Иван Щёголев, Владислав Николаев) [2014 г., криминальный, детектив, драма, SatRip] nemos
0 | 0

1 | 2211

13

07.10.2014 21:18



Последний раз редактировалось: nemos (06.11.2014 06:33), всего редактировалось 19 раз(а)

nemos Пол:Муж

07-Окт-2014 21:17

Раздача обновлена! 32 серии.

Яндекс.Метрика powered by Sphinx


В Н И М А Н И Е
Сайт не распространяет и не хранит электронные версии произведений, а лишь бесплатно и без коммерческой выгоды (не требуя взамен платы,
SMS и т.д.) предоставляет доступ к создаваемому пользователями каталогу ссылок на торрент-файлы, которые содержат только списки хеш-сумм.
Убедительная просьба с жалобами обращаться напрямую к пользователю, разместившему торрент файл.

Вверх