Loading...
Error

Отрочество / Boyhood (Ричард Линклейтер) [2014 г., драма, WEB-DLRip] VO

Статистика раздачи
Размер:  1,47 GB   |    Зарегистрирован:  2 года 2 месяца   |    Скачан:  6 раз

Полного источника не было: 1 год 11 месяцев

Сидов:  0  |  0 KB/s  ]   Личеров:  0  |  0 KB/s  ]

* - сиды/пиры с внешних источников

   
 
Автор Сообщение

Паукан Пол:Муж

06-Окт-2014 08:34

Отрочество / Boyhood


Название: Отрочество
Оригинальное название: Boyhood
Год выпуска: 2014
Страна: США
Жанр: драма
Продолжительность:02:45:05
Перевод: Любительский (одноголосый)Lord32x [по субтитрам syncroneus]
Режиссер-постановщик: Ричард Линклейтер
Актеры: Эллар Колтрейн (Mason), Патриция Аркетт (Mom), Элайджа Смит (Tommy), Лорелей Линклэйтер (Samantha), Стивен Честер Принц (Ted), Бонни Кросс (Teacher), Сидни Орта (Elementary School Girl), Либби Виллари (Grandma), Итан Хоук (Dad), Марко Перелья (Professor Bill Welbrock), Джэми Ховард (Mindy), Эндрю Вилларриал (Randy)

Описание:
Многолетний проект позволит проследить развитие реального человека с момента рождения. Уникальный шанс увидеть год за годом взросление ребенка, жизнь его родителей и изменения окружающего мира в целом.

Качество: WEB-DLRip
Формат: AVI
Видео кодек: XviD
Аудио кодек: MP3
Видео: XviD, 688x384 (16:9), 1135 kbps, 30 fps, 0,143 bpp
Аудио: MP3 / 2.0 / 48 kHz / 128 kbps /
Сэмпл
General
Complete name : D:ТорентыBoyhood.2014.WEB-DLRip.1500MB_.avi
Format : AVI
Format/Info : Audio Video Interleave
File size : 1.47 GiB
Duration : 2h 45mn
Overall bit rate : 1 275 Kbps
Writing application : VirtualDubMod 1.5.10.3 | www.virtualdub-fr.org || (build 2550/release)
Writing library : VirtualDubMod build 2550/release

Video
ID : 0
Format : MPEG-4 Visual
Format profile : Advanced Simple@L5
Format settings, BVOP : 1
Format settings, QPel : No
Format settings, GMC : No warppoints
Format settings, Matrix : Default (MPEG)
Codec ID : XVID
Codec ID/Hint : XviD
Duration : 2h 45mn
Bit rate : 1 135 Kbps
Width : 688 pixels
Height : 384 pixels
Display aspect ratio : 16:9
Frame rate : 30.000 fps
Color space : YUV
Chroma subsampling : 4:2:0
Bit depth : 8 bits
Scan type : Progressive
Compression mode : Lossy
Bits/(Pixel*Frame) : 0.143
Stream size : 1.31 GiB (89%)
Writing library : XviD 1.2.1 (UTC 2008-12-04)

Audio
ID : 1
Format : MPEG Audio
Format version : Version 1
Format profile : Layer 3
Mode : Joint stereo
Mode extension : MS Stereo
Codec ID : 55
Codec ID/Hint : MP3
Duration : 2h 45mn
Bit rate mode : Constant
Bit rate : 128 Kbps
Channel(s) : 2 channels
Sampling rate : 48.0 KHz
Compression mode : Lossy
Stream size : 151 MiB (10%)
Alignment : Aligned on interleaves
Interleave, duration : 33 ms (1.00 video frame)
Interleave, preload duration : 504 ms
pic pic pic
Для увеличения картинки щелкните мышкой по превью

Этот торрент недоступен для скачивания без регистрации, однако доступен по публичной magnet-ссылке (источники с публичных трекеров). Перед использованием ссылки прочтите, пожалуйста Пользовательское соглашение, а также как можно дольше оставайтесь на раздаче! Для того, чтобы скачать сам торрент-файл (который видит больше источников), а также для того, чтобы поблагодарить релизера, вам необходимо зарегистрироваться. Если регистрироваться лень - вы можете также попробовать скачать релиз по нашим партнерским ссылкам ниже.

[underverse.su].t44765.torrent
Трекер: Зарегистрирован   [ 06.10.2014 08:34 ]  

Статус: проверено (by Паукан at 06.10.2014 08:34)
Поблагодарили: пока никто не поблагодарил...
Тип торрента: публичный - доступные источники с открытых трекеров: 
Размер: 1,47 GB (занимает 0,34 DVDR, для записи нужно 1 болванка DVDR/RW)
 
 
Похожие темы
Форум Тема Автор Торрент Отв. Посл. сооб.
Зарубежное кино [DVDRip, Low-Res HDRip, и т.д.] Отрочество / Boyhood (Ричард Линклейтер) [2014 г., Драма, WEBRip] VO (RUS, Lord32x) Ведьмочка
0 | 0

0 | 585

11

06.10.2014 08:38

Зарубежное кино [DVDRip, Low-Res HDRip, и т.д.] Отрочество / Boyhood (Ричард Линклейтер) [2014 г., драма, HDRip] Dub makkol
7 | 0

0 | 229

11

06.12.2015 22:59

Зарубежное кино [HDDVDRip / BDRip / WEB-DL / HDTV 1080/720р] Отрочество / Boyhood (Ричард Линклейтер) [2014 г., Драма, WEBRip 720p] VO (RUS, Lord32x) + Original (ENG) + Subs (RUS) Ведьмочка
0 | 0

1 | 753

9

14.10.2014 09:50

Зарубежное кино [HDDVDRip / BDRip / WEB-DL / HDTV 1080/720р] Отрочество / Boyhood (Ричард Линклейтер) [2014 г., драма, BDRip 720p] Dub + Original makkol
3 | 0

0 | 177

1

06.12.2015 23:10

Зарубежное кино [HDDVDRip / BDRip / WEB-DL / HDTV 1080/720р] Отрочество / Boyhood (Ричард Линклейтер) [2014 г., драма, BDRip 1080p] Dub + Original makkol
0 | 0

0 | 200

6

06.12.2015 23:24


Яндекс.Метрика powered by Sphinx


В Н И М А Н И Е
Сайт не распространяет и не хранит электронные версии произведений, а лишь бесплатно и без коммерческой выгоды (не требуя взамен платы,
SMS и т.д.) предоставляет доступ к создаваемому пользователями каталогу ссылок на торрент-файлы, которые содержат только списки хеш-сумм.
Убедительная просьба с жалобами обращаться напрямую к пользователю, разместившему торрент файл.

Вверх