Loading...
Error

Схватка (1-4 серии из 4) (Юрий Харнас) [2014 г., Детектив, SatRip]

Статистика раздачи
Размер:  2,31 GB   |    Зарегистрирован:  2 года 2 месяца   |    Скачан:  43 раза

Полного источника не было: 4 месяца 26 дней

Сидов:  0  |  0 KB/s  ]   Личеров:  0  |  0 KB/s  ]

* - сиды/пиры с внешних источников

   
 
Автор Сообщение

nemos Пол:Муж

05-Окт-2014 22:02

Схватка


Год выпуска: 5 октября 2014
Жанр: Детектив
Страна: Россия
Режиссер: Юрий Харнас
В ролях: Юрий Чурсин, Кристина Казинская, Владимир Епифанцев, Виктория Райкова, Александр Чередник, Анатолий Котенёв, Виктор Потапешкин, Ёлка, Донатас Грудович, Ксения Яковлева, Алексей Франдетти, Андрей Свиридов, Евгений Кулаков, Владимир Юматов, Константин Спасский, Владимир Денисов, Евгения Пресникова, Ирина Домнинская, Руслан Братов, Александр Молочников, Павел Ремнёв
Сюжет фильма:
Евгений ничего не помнит о своей прошлой жизни. Нехитрое имущество, найденное в карманах, привело его в квартиру, но и та не подкинула воспоминаний. Единственное, что он понял, — он не простой человек. У простых людей дома не хранятся огромные суммы денег. У простых людей нет паспортов на разные фамилии. В это же время ФСБ приступило к расследованию дела о семи пропавших молодых людях. Все пропавшие были сиротами и погодками, что особенно заинтересовало следствие. Евгений сто процентно подходит под эти параметры и за ним начинается слежка…


Качество видео: SatRip

Продолжительность: 00:57:04 серия
Формат: AVI
Видео: XviD, 720 x 400, 1 406 kbps
Аудио: русский, AC3 2.0, 192 kbps

Код:

D:\Фильмы Раздача-1\Схватка (2014)\Схватка. Серия 04 (2014).avi
   General
      Complete name : D:\Фильмы Раздача-1\Схватка (2014)\Схватка. Серия 04 (2014).avi
      Format : AVI
      Format/Info : Audio Video Interleave
      File size : 656 MiB
      Duration : 57mn 4s
      Overall bit rate : 1 608 Kbps
      Writing application : VirtualDubMod 1.5.10.3 | www.virtualdub-fr.org || (build 2550/release)
      Writing library : VirtualDubMod build 2550/release
   Video #0
      ID : 0
      Format : MPEG-4 Visual
      Format profile : Advanced Simple@L5
      Format settings, BVOP : 1
      Format settings, QPel : No
      Format settings, GMC : No warppoints
      Format settings, Matrix : Custom
      Codec ID : XVID
      Codec ID/Hint : XviD
      Duration : 57mn 4s
      Bit rate : 1 406 Kbps
      Width : 720 pixels
      Height : 400 pixels
      Display aspect ratio : 16:9
      Frame rate : 25.000 fps
      Color space : YUV
      Chroma subsampling : 4:2:0
      Bit depth : 8 bits
      Scan type : Progressive
      Compression mode : Lossy
      Bits/(Pixel*Frame) : 0.195
      Stream size : 574 MiB (87%)
      Writing library : XviD 73
   Audio #1
      ID : 1
      Format : AC-3
      Format/Info : Audio Coding 3
      Mode extension : CM (complete main)
      Format settings, Endianness : Big
      Codec ID : 2000
      Duration : 57mn 4s
      Bit rate mode : Constant
      Bit rate : 192 Kbps
      Channel(s) : 2 channels
      Channel positions : Front: L R
      Sampling rate : 48.0 KHz
      Bit depth : 16 bits
      Compression mode : Lossy
      Stream size : 78.4 MiB (12%)
      Alignment : Split accross interleaves
      Interleave, duration : 40 ms (1.00 video frame)
      Interleave, preload duration : 500 ms
picpicpicpicpicpicpicpicpicpic
Для увеличения картинки щелкните мышкой по превью

Этот торрент недоступен для скачивания без регистрации, однако доступен по публичной magnet-ссылке (источники с публичных трекеров). Перед использованием ссылки прочтите, пожалуйста Пользовательское соглашение, а также как можно дольше оставайтесь на раздаче! Для того, чтобы скачать сам торрент-файл (который видит больше источников), а также для того, чтобы поблагодарить релизера, вам необходимо зарегистрироваться. Если регистрироваться лень - вы можете также попробовать скачать релиз по нашим партнерским ссылкам ниже.

[underverse.su].t44737.torrent
Трекер: Зарегистрирован   [ 05.10.2014 22:02 ]  

Статус: проверено (by nemos at 05.10.2014 22:03)
Поблагодарили: 4 человека
Тип торрента: публичный - доступные источники с открытых трекеров: 
Размер: 2,31 GB (занимает 0,53 DVDR, для записи нужно 1 болванка DVDR/RW)
 
 

Яндекс.Метрика powered by Sphinx


В Н И М А Н И Е
Сайт не распространяет и не хранит электронные версии произведений, а лишь бесплатно и без коммерческой выгоды (не требуя взамен платы,
SMS и т.д.) предоставляет доступ к создаваемому пользователями каталогу ссылок на торрент-файлы, которые содержат только списки хеш-сумм.
Убедительная просьба с жалобами обращаться напрямую к пользователю, разместившему торрент файл.

Вверх