Loading...
Error

Мужские каникулы (1-4 серии из 4) (Леонид Белозорович) [2014 г., боевик, драма, криминал, SatRip]

Статистика раздачи
Размер:  2,41 GB   |    Зарегистрирован:  3 года   |    Скачан:  42 раза

Полного источника не было: 1 год 3 месяца

Сидов:  0  |  0 KB/s  ]   Личеров:  0  |  0 KB/s  ]

* - сиды/пиры с внешних источников

   
 
Автор Сообщение

nemos Пол:Муж

03-Окт-2014 15:21


Год выпуска: премьера (РФ) 3 октября 2014
Жанр: боевик, драма, криминал
Страна: Россия
Режиссер: Леонид Белозорович
В ролях: Алексей Кравченко, Александр Дзюба, Кирилл Кяро, Александр Шаляпин, Екатерина Маликова
Сюжет фильма:
Молодая красавица Анна Попова готова пойти на все, чтобы прибрать к рукам состояние и бизнес своего мужа – успешного столичного предпринимателя Юрия. Она преподносит супругу, любителю поохотиться и порыбачить, щедрый подарок – путевку на Дальний Восток для экстремального отдыха под названием «Мужские каникулы». План Анны прост: вместе с мужем на «каникулы» поедет ее любовник и его лучший друг Сергей, который должен будет найти возможность убить Юрия, представив смерть товарища как несчастный случай. Третьим в путешествие отправляется их общий друг Кирилл, проигравший крупную сумму чужих денег и вынужденный скрываться. Прибывших на место охоты друзей снабдят оружием и всем необходимым для выживания в тайге, а потом вертолетом забросят в дикую природу. Их ждут охота, рыбная ловля, промывка золота старательским способом и… множество опасностей, проверок на прочность. Им предстоит узнать, какова она — цена настоящей мужской дружбы?


Качество видео: SatRip

Продолжительность: 00:43:59 серия
Формат: AVI
Видео: XviD, 720x448, 1800 kbps
Аудио: русский, MP3 2.0, 128 kbps

Код:

D:\Фильмы Раздача-1\Muzhskie.kanikuly.2014.SATRip\Muzhskie.kanikuly.04.2014.SATRip.[www.*другой трекер*].avi
   General
      Complete name : D:\Фильмы Раздача-1\Muzhskie.kanikuly.2014.SATRip\Muzhskie.kanikuly.04.2014.SATRip.[www.*другой трекер*].avi
      Format : AVI
      Format/Info : Audio Video Interleave
      File size : 610 MiB
      Duration : 43mn 59s
      Overall bit rate : 1 937 Kbps
      Writing library : VirtualDub build 32817/release
   Video #0
      ID : 0
      Format : MPEG-4 Visual
      Format profile : Advanced Simple@L5
      Format settings, BVOP : 2
      Format settings, QPel : No
      Format settings, GMC : No warppoints
      Format settings, Matrix : Default (MPEG)
      Codec ID : XVID
      Codec ID/Hint : XviD
      Duration : 43mn 59s
      Bit rate : 1 800 Kbps
      Width : 720 pixels
      Height : 448 pixels
      Display aspect ratio : 1.607
      Frame rate : 25.000 fps
      Color space : YUV
      Chroma subsampling : 4:2:0
      Bit depth : 8 bits
      Scan type : Progressive
      Compression mode : Lossy
      Bits/(Pixel*Frame) : 0.223
      Stream size : 566 MiB (93%)
      Writing library : XviD 1.2.1 (UTC 2008-12-04)
   Audio #1
      ID : 1
      Format : MPEG Audio
      Format version : Version 1
      Format profile : Layer 3
      Mode : Joint stereo
      Codec ID : 55
      Codec ID/Hint : MP3
      Duration : 43mn 59s
      Bit rate mode : Constant
      Bit rate : 128 Kbps
      Channel(s) : 2 channels
      Sampling rate : 48.0 KHz
      Compression mode : Lossy
      Stream size : 40.3 MiB (7%)
      Alignment : Split accross interleaves
      Interleave, duration : 40 ms (1.00 video frame)
      Interleave, preload duration : 500 ms
picpicpicpicpicpicpicpicpicpicpicpicpicpicpic
Для увеличения картинки щелкните мышкой по превью

Этот торрент недоступен для скачивания без регистрации, однако доступен по публичной magnet-ссылке (источники с публичных трекеров). Перед использованием ссылки прочтите, пожалуйста Пользовательское соглашение, а также как можно дольше оставайтесь на раздаче! Для того, чтобы скачать сам торрент-файл (который видит больше источников), а также для того, чтобы поблагодарить релизера, вам необходимо зарегистрироваться. Если регистрироваться лень - вы можете также попробовать скачать релиз по нашим партнерским ссылкам ниже.

[underverse.su].t44669.torrent
Трекер: Зарегистрирован   [ 03.10.2014 15:21 ]  

Статус: проверено (by nemos at 03.10.2014 15:44)
Поблагодарили: 4 человека
Тип торрента: публичный - доступные источники с открытых трекеров: 
Размер: 2,41 GB (занимает 0,55 DVDR, для записи нужно 1 болванка DVDR/RW)
 
 

Яндекс.Метрика powered by Sphinx


В Н И М А Н И Е
Сайт не распространяет и не хранит электронные версии произведений, а лишь бесплатно и без коммерческой выгоды (не требуя взамен платы,
SMS и т.д.) предоставляет доступ к создаваемому пользователями каталогу ссылок на торрент-файлы, которые содержат только списки хеш-сумм.
Убедительная просьба с жалобами обращаться напрямую к пользователю, разместившему торрент файл.

Вверх