Loading...
Error

Малефисента / Maleficent (Роберт Стромберг) [2014 г., фэнтези, семейный, мелодрама, приключения, BDRip] Dub + Original + Sub (Rus, Eng) HQ Underverse

Статистика раздачи
Размер:  2,18 GB   |    Зарегистрирован:  3 года 7 месяцев   |    Скачан:  48 раз

Полного источника не было: 3 месяца 4 дня

Сидов:  0  |  0 KB/s  ]   Личеров:  0  |  0 KB/s  ]

* - сиды/пиры с внешних источников

   
 
Автор Сообщение

HQ Underverse 

02-Окт-2014 14:26

Малефисента / Maleficent


Год выпуска: 2014
Жанр: фэнтези, семейный, мелодрама, приключения
Страна: США
Режиссер: Роберт Стромберг
В ролях: Анджелина Джоли, Эль Фаннинг, Шарлто Копли, Сэм Райли, Имелда Стонтон, Джуно Темпл, Лесли Мэнвилл, Брентон Туэйтс, Кеннет Крэнэм, Изобель Моллой
Сюжет фильма:
Юная волшебница Малефисента вела уединенную жизнь в зачарованном лесу, окруженная сказочными существами, но однажды все изменилось… В её мир вторглись люди, которые принесли с собой разрушение и хаос, и Малефисенте пришлось встать на защиту своих подданных, призвав на помощь могущественные тёмные силы. В пылу борьбы Малефисента наложила страшное заклятие на новорожденную дочь короля, прекрасную Аврору. Но, наблюдая за тем, как растет маленькая принцесса, Малефисента начинает сомневаться в правильности своего поступка — ведь, возможно, именно Аврора может вдохнуть новую жизнь в волшебное лесное царство.

  • Мировая премьера: 28 мая 2014
  • Российская премьера: 29 мая 2014, «WDSSPR» 3D

/
Качество видео: BDRip

Продолжительность: 01:37:28
Формат: avi
Видео: XviD, 720x304, 2283 kbps
Аудио #1: русский, дублированный [лицензия], AC3 5.1, 448 kbps
Аудио #2: английский, оригинал, AC3 5.1, 448 kbps
Субтитры #1: внешние, SRT, русский
Субтитры #2: внешние, SRT, английский

Код:

General
Complete name                    : Y:\Малефисента\Maleficent.2014.BDRip.XviD.AC3.Rus.D.Eng.O.HQ.Underverse.avi
Format                           : AVI
Format/Info                      : Audio Video Interleave
Format profile                   : OpenDML
File size                        : 2.18 GiB
Duration                         : 1h 37mn
Overall bit rate                 : 3 198 Kbps
Writing application              : VirtualDubMod 1.5.10.3 | www.virtualdub-fr.org || (build 2550/release)
Writing library                  : VirtualDubMod build 2550/release

Video
ID                               : 0
Format                           : MPEG-4 Visual
Format profile                   : Streaming Video@L1
Format settings, BVOP            : Yes
Format settings, QPel            : No
Format settings, GMC             : No warppoints
Format settings, Matrix          : Custom
Codec ID                         : XVID
Codec ID/Hint                    : XviD
Duration                         : 1h 37mn
Bit rate                         : 2 284 Kbps
Width                            : 720 pixels
Height                           : 304 pixels
Display aspect ratio             : 2.35
Frame rate                       : 23.976 fps
Resolution                       : 24 bits
Colorimetry                      : 4:2:0
Scan type                        : Progressive
Bits/(Pixel*Frame)               : 0.435
Stream size                      : 1.55 GiB (71%)
Writing library                  : XviD 64

Audio #1
ID                               : 1
Format                           : AC-3
Format/Info                      : Audio Coding 3
Codec ID                         : 2000
Duration                         : 1h 37mn
Bit rate mode                    : Constant
Bit rate                         : 448 Kbps
Channel(s)                       : 6 channels
Channel positions                : Front: L C R, Surround: L R, LFE
Sampling rate                    : 48.0 KHz
Stream size                      : 312 MiB (14%)
Alignment                        : Split accross interleaves
Interleave, duration             : 42 ms (1.00 video frame)
Interleave, preload duration     : 500 ms

Audio #2
ID                               : 2
Format                           : AC-3
Format/Info                      : Audio Coding 3
Codec ID                         : 2000
Duration                         : 1h 37mn
Bit rate mode                    : Constant
Bit rate                         : 448 Kbps
Channel(s)                       : 6 channels
Channel positions                : Front: L C R, Surround: L R, LFE
Sampling rate                    : 48.0 KHz
Stream size                      : 312 MiB (14%)
Alignment                        : Split accross interleaves
Interleave, duration             : 42 ms (1.00 video frame)
Interleave, preload duration     : 500 ms

Релиз группы:

pic pic pic
Для увеличения картинки щелкните мышкой по превью

Этот торрент недоступен для скачивания без регистрации, однако доступен по публичной magnet-ссылке (источники с публичных трекеров). Перед использованием ссылки прочтите, пожалуйста Пользовательское соглашение, а также как можно дольше оставайтесь на раздаче! Для того, чтобы скачать сам торрент-файл (который видит больше источников), а также для того, чтобы поблагодарить релизера, вам необходимо зарегистрироваться. Если регистрироваться лень - вы можете также попробовать скачать релиз по нашим партнерским ссылкам ниже. Кроме того, зарегистрированным пользователям не показывается всплывающая реклама при скачивании.

[underverse.su].t44600.torrent
Трекер: Зарегистрирован   [ 02.10.2014 14:26 ]  

Статус: проверено (by HQ Underverse at 02.10.2014 14:26)
Поблагодарили: 3 человека
Тип торрента: публичный - доступные источники с открытых трекеров: 
Размер: 2,18 GB (занимает 1/2 DVDR, для записи нужно 1 болванка DVDR/RW)
 
 
Похожие темы
Форум Тема Автор Торрент Отв. Посл. сооб.
Зарубежное кино [DVDRip, Low-Res HDRip, и т.д.] Малефисента / Maleficent (Роберт Стромберг / Robert Stromberg) [2014 г., фэнтези, боевик, мелодрама, приключения, семейный, BDRip-AVC] Dub 90ytr90
2 | 0

1 | 885

27

26.09.2014 07:54

Зарубежное кино [DVDRip, Low-Res HDRip, и т.д.] Малефисента / Maleficent (Роберт Стромберг / Robert Stromberg) [2014 г., фэнтези, боевик, мелодрама, приключения, семейный, BDRip-AVC] Dub + Original (Eng) + Sub (Rus, Eng) 90ytr90
2 | 0

0 | 989

27

16.09.2014 06:29

Зарубежное кино [HDDVDRip / BDRip / WEB-DL / HDTV 1080/720р] Малефисента / Maleficent (Роберт Стромберг / Robert Stromberg) [2014 г., фэнтези, боевик, мелодрама, приключения, семейный, BDRip 720p] Dub + Original (Eng) + Sub (Rus, Eng) 90ytr90
6 | 0

0 | 749

15

16.09.2014 06:35

Зарубежное кино [HDDVDRip / BDRip / WEB-DL / HDTV 1080/720р] Малефисента / Maleficent (Роберт Стромберг / Robert Stromberg) [2014 г., фэнтези, боевик, мелодрама, приключения, семейный, BDRip 1080p] Dub + Original (Eng) + Sub (Rus, Eng) 90ytr90
5 | 0

2 | 1065

50

22.09.2014 18:03

Зарубежное кино [HDDVDRip / BDRip / WEB-DL / HDTV 1080/720р] Малефисента / Maleficent (Роберт Стромберг) [2014 г., Фэнтези, Семейный, Мелодрама, Приключения, BDRip 1080p] Dub (RUS) + Original (ENG) + Subs (RUS, ENG) / 60 FPS Ведьмочка
0 | 0

0 | 760

27

23.09.2014 17:02

Зарубежное кино [HDDVDRip / BDRip / WEB-DL / HDTV 1080/720р] Малефисента / Maleficent (Роберт Стромберг) [2014 г., Фэнтези, Семейный, Мелодрама, Приключения, BDRip 720p] Dub (RUS) + Original (ENG) + Subs (RUS, ENG) / 60 FPS Ведьмочка
1 | 0

0 | 769

25

23.09.2014 17:08

T Архив (художественные фильмы) Малефисента / Maleficent (Роберт Стромберг / Robert Stromberg) [2014 г., фэнтези, боевик, мелодрама, приключения, семейный, DVDRip] Dub (чистый звук) 90ytr90
0 | 0

1 | 1667

99

31.01.2018 15:19

Архив (художественные фильмы) Малефисента / Maleficent (Роберт Стромберг / Robert Stromberg) [2014 г., фэнтези, боевик, мелодрама, приключения, семейный, BDRip] Dub + Original (Eng) + Sub (Rus, Eng) 90ytr90
1 | 0

1 | 824

16

31.01.2018 15:22

DrBond Пол:Муж

07-Май-2015 17:00

Думал муть. Оказалось не муть:))
Интересный фильм. Немного на Белоснежку смахивает, но сюжет закручен так, что не до Белоснежки. Много есть моментов ржачных. Можно смотреть всей семьёй - детям нравится!

Shursh Пол:Муж

10-Май-2015 21:07

Надо будет скачать

31-Янв-2018 13:33

Топик был перенесен из форума Зарубежное кино HQ в форум Архив (HQ Underverse)


[cron robot]
 

Яндекс.Метрика powered by Sphinx


В Н И М А Н И Е
Сайт не распространяет и не хранит электронные версии произведений, а лишь бесплатно и без коммерческой выгоды (не требуя взамен платы,
SMS и т.д.) предоставляет доступ к создаваемому пользователями каталогу ссылок на торрент-файлы, которые содержат только списки хеш-сумм.
Убедительная просьба с жалобами обращаться напрямую к пользователю, разместившему торрент файл.

Вверх