Loading...
Error

Проект "Золотой глаз" (1-4 серия из 4) (Грачья Кешишян) [2014 г., Боевик, SatRip]

Статистика раздачи
Размер:  2,15 GB   |    Зарегистрирован:  2 года 2 месяца   |    Скачан:  22 раза

Полного источника не было: 1 месяц 27 дней

Сидов:  0  |  0 KB/s  ]   Личеров:  0  |  0 KB/s  ]

* - сиды/пиры с внешних источников

   
 
Автор Сообщение

nemos Пол:Муж

29-Сен-2014 17:22



Год выпуска: 2014
Жанр: Боевик
Страна: Россия
Режиссер: Грачья Кешишян
В ролях: Мария Луговая, Александр Пашков, Олег Морозов, Константин Самоуков, Сергей Апрельский, Аполлон Кублашвили
Сюжет фильма:
После трагической смерти молодого ученого, работавшего над уникальной технологией «Золотой глаз», пропадает его малолетний сын. Следователи ФСБ подозревают, что мальчик знает уникальный код, позволяющий выйти на след изобретения, за которым охотятся сразу несколько международных группировок. Сестра погибшего ученого собирает группу наемников, которые берутся отыскать и спасти ребенка, чьи следы обнаружены где-то в Турции.


Качество видео: SatRip

Продолжительность: 00:36:31 серия
Формат: AVI
Видео: XviD, 720x400, 1 901 kbps
Аудио: русский, AC3 2.0, 192 kbps

Код:

D:\Фильмы Раздача-1\Projekt.Zalatoj.glaz.2014.SATRip.RG.Russkie.serialy.&.Files-x\04.Projekt.Zalatoj.glaz.2014.SATRip.RG.Russkie.serialy.&.Files-x.avi
   General
      Complete name : D:\Фильмы Раздача-1\Projekt.Zalatoj.glaz.2014.SATRip.RG.Russkie.serialy.&.Files-x\04.Projekt.Zalatoj.glaz.2014.SATRip.RG.Russkie.serialy.&.Files-x.avi
      Format : AVI
      Format/Info : Audio Video Interleave
      File size : 549 MiB
      Duration : 36mn 31s
      Overall bit rate : 2 103 Kbps
      Writing application : VirtualDubModRus 1.5.10.2 (build 2542/release)
      Writing library : VirtualDubMod build 2542/release
   Video #0
      ID : 0
      Format : MPEG-4 Visual
      Format profile : Advanced Simple@L5
      Format settings, BVOP : 1
      Format settings, QPel : No
      Format settings, GMC : No warppoints
      Format settings, Matrix : Custom
      Codec ID : XVID
      Codec ID/Hint : XviD
      Duration : 36mn 31s
      Bit rate : 1 901 Kbps
      Width : 720 pixels
      Height : 400 pixels
      Display aspect ratio : 16:9
      Frame rate : 25.000 fps
      Color space : YUV
      Chroma subsampling : 4:2:0
      Bit depth : 8 bits
      Scan type : Progressive
      Compression mode : Lossy
      Bits/(Pixel*Frame) : 0.264
      Stream size : 497 MiB (90%)
      Writing library : XviD 73
   Audio #1
      ID : 1
      Format : AC-3
      Format/Info : Audio Coding 3
      Mode extension : CM (complete main)
      Format settings, Endianness : Big
      Codec ID : 2000
      Duration : 36mn 31s
      Bit rate mode : Constant
      Bit rate : 192 Kbps
      Channel(s) : 2 channels
      Channel positions : Front: L R
      Sampling rate : 48.0 KHz
      Bit depth : 16 bits
      Compression mode : Lossy
      Stream size : 50.1 MiB (9%)
      Alignment : Split accross interleaves
      Interleave, duration : 40 ms (1.00 video frame)
      Interleave, preload duration : 500 ms
picpicpicpicpicpicpicpicpicpicpicpicpic
Для увеличения картинки щелкните мышкой по превью

Этот торрент недоступен для скачивания без регистрации, однако доступен по публичной magnet-ссылке (источники с публичных трекеров). Перед использованием ссылки прочтите, пожалуйста Пользовательское соглашение, а также как можно дольше оставайтесь на раздаче! Для того, чтобы скачать сам торрент-файл (который видит больше источников), а также для того, чтобы поблагодарить релизера, вам необходимо зарегистрироваться. Если регистрироваться лень - вы можете также попробовать скачать релиз по нашим партнерским ссылкам ниже.

[underverse.su].t44465.torrent
Трекер: Зарегистрирован   [ 29.09.2014 17:22 ]  

Статус: проверено (by nemos at 29.09.2014 17:24)
Поблагодарили: пока никто не поблагодарил...
Тип торрента: публичный - доступные источники с открытых трекеров: 
Размер: 2,15 GB (занимает 0,49 DVDR, для записи нужно 1 болванка DVDR/RW)
 
 
Похожие темы
Форум Тема Автор Торрент Отв. Посл. сооб.
Научно-популярные фильмы Проект "Общее дело" «Чижик-пыжик, где ты был?..» [2009 г., Документальный, SatRip] trezvocnua
0 | 0

1 | 1255

4

31.08.2011 08:33

* Архив Проект "Общее дело" "Детский алкоголизм" [2009 г., документальный, SatRip] ReJoN

3 | 1736

30.08.2010 00:06


Яндекс.Метрика powered by Sphinx


В Н И М А Н И Е
Сайт не распространяет и не хранит электронные версии произведений, а лишь бесплатно и без коммерческой выгоды (не требуя взамен платы,
SMS и т.д.) предоставляет доступ к создаваемому пользователями каталогу ссылок на торрент-файлы, которые содержат только списки хеш-сумм.
Убедительная просьба с жалобами обращаться напрямую к пользователю, разместившему торрент файл.

Вверх