Loading...
Error

Тайный город (2 сезон: 1-8 серии из 8) (Александр Мохов) [2014 г., Фэнтези, SatRip]

Статистика раздачи
Размер:  4,3 GB   |    Зарегистрирован:  2 года 2 месяца   |    Скачан:  29 раз

Полного источника не было: 1 месяц 7 дней

Сидов:  0  |  0 KB/s  ]   Личеров:  0  |  0 KB/s  ]

* - сиды/пиры с внешних источников

   
 
Автор Сообщение

nemos Пол:Муж

29-Сен-2014 09:03

Тайный город 2


Год выпуска: 2014
Жанр: Фэнтези
Страна: Россия
Режиссер: Александр Мохов
В ролях: Марчин Руй, Павел Прилучный, Дарья Сагалова, Игорь Жижикин, Елена Ташаева, Александр Мохов, Илья Исаев, Юлия Такшина, Михаил Горевой, Михаил Полицеймако, Дмитрий Горевой, Серафима Низовская, Сергей Чирков, Виктор Супрун, Надежда Азоркина, Агата Муцениеце, Теона Дольникова, Сергей Глушко, Сергей Бадюк, Веста Буркот, Алексей Дмитриев, Борис Эстрин, Михаил Владимиров, Кирилл Дубровицкий, Александр Кобзарь, Борис Комков, Марина Казанкова, Петр Королёв, Пётр Винс, Светлана Потанина, Виктор Мютников, Шухрат Курбанов, Руслан Спояло, Владимир Кошевой, Виктория Кастро, Кирилл Мелехов, Роман Радов, Виктор Бурко, Сергей Брюн, Петар Зекавица, Сергей Габриэлян, Павел Кассинский, Сергей Жарков
Сюжет фильма:
Экранизация двух романов из цикла Вадима Панова «Тайный Город» – «Атака по правилам» и «Все оттенки черного». Кровавое побоище в ночном клубе и нападение скинов на антикварный магазин на Арбате - это эпизоды чудовищного заговора против обитателей Тайного города. Судьбы магов прошлого и настоящего, загадка библиотеки Ивана Грозного, тайна Сухаревой Башни - всё это переплелось в коварной интриге одной-единственной ведьмы, задумавшей обмануть время. А вскоре после этого в Тайном городе появляется вампир, нарушающий Догмы покорности...


Качество видео: SatRip

Продолжительность: 00:46:39 серия
Формат: AVI
Видео: XviD, 720x544, 1 465 kbps
Аудио: русский, AC3 2.0, 192 kbps

Код:

D:\Фильмы Раздача-1\Tayniy.gorod-2.2014.SATRip.Generalfilm\Tayniy.gorod-2.Seriya.08.2014.SATRip.Generalfilm.avi
   General
      Complete name : D:\Фильмы Раздача-1\Tayniy.gorod-2.2014.SATRip.Generalfilm\Tayniy.gorod-2.Seriya.08.2014.SATRip.Generalfilm.avi
      Format : AVI
      Format/Info : Audio Video Interleave
      File size : 556 MiB
      Duration : 46mn 39s
      Overall bit rate : 1 666 Kbps
      Writing application : VirtualDubMod 1.5.10.3 | www.virtualdub-fr.org || (build 2550/release)
      Writing library : VirtualDubMod build 2550/release
   Video #0
      ID : 0
      Format : MPEG-4 Visual
      Format profile : Advanced Simple@L5
      Format settings, BVOP : 1
      Format settings, QPel : No
      Format settings, GMC : No warppoints
      Format settings, Matrix : Custom
      Codec ID : XVID
      Codec ID/Hint : XviD
      Duration : 46mn 39s
      Bit rate : 1 465 Kbps
      Width : 720 pixels
      Height : 544 pixels
      Display aspect ratio : 4:3
      Frame rate : 25.000 fps
      Color space : YUV
      Chroma subsampling : 4:2:0
      Bit depth : 8 bits
      Scan type : Progressive
      Compression mode : Lossy
      Bits/(Pixel*Frame) : 0.150
      Stream size : 489 MiB (88%)
      Writing library : XviD 73
   Audio #1
      ID : 1
      Format : AC-3
      Format/Info : Audio Coding 3
      Mode extension : CM (complete main)
      Format settings, Endianness : Big
      Codec ID : 2000
      Duration : 46mn 39s
      Bit rate mode : Constant
      Bit rate : 192 Kbps
      Channel(s) : 2 channels
      Channel positions : Front: L R
      Sampling rate : 48.0 KHz
      Bit depth : 16 bits
      Compression mode : Lossy
      Stream size : 64.1 MiB (12%)
      Alignment : Split accross interleaves
      Interleave, duration : 40 ms (1.00 video frame)
      Interleave, preload duration : 500 ms
picpicpicpicpicpicpic
Для увеличения картинки щелкните мышкой по превью

Этот торрент недоступен для скачивания без регистрации, однако доступен по публичной magnet-ссылке (источники с публичных трекеров). Перед использованием ссылки прочтите, пожалуйста Пользовательское соглашение, а также как можно дольше оставайтесь на раздаче! Для того, чтобы скачать сам торрент-файл (который видит больше источников), а также для того, чтобы поблагодарить релизера, вам необходимо зарегистрироваться. Если регистрироваться лень - вы можете также попробовать скачать релиз по нашим партнерским ссылкам ниже.

[underverse.su].t44432.torrent
Трекер: Зарегистрирован   [ 29.09.2014 09:03 ]  

Статус: проверено (by nemos at 29.09.2014 09:04)
Поблагодарили: 2 человека
Тип торрента: публичный - доступные источники с открытых трекеров: 
Размер: 4,3 GB (занимает 0,98 DVDR, для записи нужно 1 болванка DVDR/RW)
 
 
Похожие темы
Форум Тема Автор Торрент Отв. Посл. сооб.
xUSSR сериалы Тайный город [01-08 из 08] (Александр Мохов) [2014 г., фэнтези, SatRip] konopic
2 | 0

0 | 540

23

04.05.2014 18:06

xUSSR сериалы Тайный город / Сезон 1 / Серии: 1-8 из 8 (Александр Мохов) [2014 г., Фэнтези, DVDRip-AVC] Ведьмочка
0 | 0

0 | 511

15

24.09.2014 19:24


Яндекс.Метрика powered by Sphinx


В Н И М А Н И Е
Сайт не распространяет и не хранит электронные версии произведений, а лишь бесплатно и без коммерческой выгоды (не требуя взамен платы,
SMS и т.д.) предоставляет доступ к создаваемому пользователями каталогу ссылок на торрент-файлы, которые содержат только списки хеш-сумм.
Убедительная просьба с жалобами обращаться напрямую к пользователю, разместившему торрент файл.

Вверх