Loading...
Error

Грань будущего / Edge of Tomorrow (Даг Лайман / Doug Liman) [2014 г., фантастика, боевик, BDRip] Dub HQ Underverse

Статистика раздачи
Размер:  2,17 GB   |    Зарегистрирован:  2 года 2 месяца   |    Скачан:  41 раз
Сидов:  1  |  0 KB/s  ]   Личеров:  0  |  0 KB/s  ]

* - сиды/пиры с внешних источников

   
 
Автор Сообщение

HQ Underverse 

27-Сен-2014 11:03

Грань будущего / Edge of Tomorrow


Год выпуска: 2014
Жанр: фантастика, боевик
Страна: США , Австралия
Режиссер: Даг Лайман / Doug Liman
В ролях: Том Круз, Эмили Блант, Билл Пэкстон, Брендан Глисон, Джонас Армстронг, Тони Вэй, Кик Гарри, Франц Драмех, Драгомир Мрсич, Шарлотта Райли
Сюжет фильма:
В недалёком будущем раса инопланетян вторгается на Землю. Никакая армия в мире не может противостоять им. Майор Уильям Кейдж умирает в бою, но случается невозможное — он оказывается во временной петле. Раз за разом он попадает в один и тот же бой, сражается и умирает… снова и снова. И каждое повторяющееся сражение приближает его к разгадке того, как победить врага.

  • Мировая премьера: 28 мая 2014
  • Российская премьера: 5 июня 2014

/
Качество видео: BDRip

Продолжительность: 01:53:29
Формат: avi
Видео: XviD, 720x304, 2281 kbps
Аудио: русский, дублированный [лицензия], AC3 5.1, 448 kbps

Семпл: http://multi-up.com/1002009

Релиз группы:

Код:

General
Complete name                    : D:\Video\Movies\Releases\Edge.of.Tomorrow.2014.BDRip.XviD.AC3.Rus.D.HQ.Underverse.avi
Format                           : AVI
Format/Info                      : Audio Video Interleave
Format profile                   : OpenDML
File size                        : 2.17 GiB
Duration                         : 1h 53mn
Overall bit rate                 : 2 741 Kbps
Writing application              : VirtualDubMod 1.5.10.3 | www.virtualdub-fr.org || (build 2550/release)
Writing library                  : VirtualDubMod build 2550/release

Video
ID                               : 0
Format                           : MPEG-4 Visual
Format profile                   : Streaming Video@L1
Format settings, BVOP            : Yes
Format settings, QPel            : No
Format settings, GMC             : No warppoints
Format settings, Matrix          : Custom
Codec ID                         : XVID
Codec ID/Hint                    : XviD
Duration                         : 1h 53mn
Bit rate                         : 2 281 Kbps
Width                            : 720 pixels
Height                           : 304 pixels
Display aspect ratio             : 2.35
Frame rate                       : 23.976 fps
Resolution                       : 24 bits
Colorimetry                      : 4:2:0
Scan type                        : Progressive
Bits/(Pixel*Frame)               : 0.435
Stream size                      : 1.81 GiB (83%)
Writing library                  : XviD 64

Audio
ID                               : 1
Format                           : AC-3
Format/Info                      : Audio Coding 3
Codec ID                         : 2000
Duration                         : 1h 53mn
Bit rate mode                    : Constant
Bit rate                         : 448 Kbps
Channel(s)                       : 6 channels
Channel positions                : Front: L C R, Surround: L R, LFE
Sampling rate                    : 48.0 KHz
Stream size                      : 364 MiB (16%)
Alignment                        : Split accross interleaves
Interleave, duration             : 42 ms (1.00 video frame)
Interleave, preload duration     : 500 ms
Title                            : Russian Dub (BD CEE)

picpicpicpic
Для увеличения картинки щелкните мышкой по превью

Этот торрент недоступен для скачивания без регистрации, однако доступен по публичной magnet-ссылке (источники с публичных трекеров). Перед использованием ссылки прочтите, пожалуйста Пользовательское соглашение, а также как можно дольше оставайтесь на раздаче! Для того, чтобы скачать сам торрент-файл (который видит больше источников), а также для того, чтобы поблагодарить релизера, вам необходимо зарегистрироваться. Если регистрироваться лень - вы можете также попробовать скачать релиз по нашим партнерским ссылкам ниже.

[underverse.su].t44359.torrent
Трекер: Зарегистрирован   [ 27.09.2014 11:11 ]  

Статус: проверено (by Паукан at 01.10.2014 11:23)
Поблагодарили: 2 человека
Тип торрента: публичный - доступные источники с открытых трекеров: 
Размер: 2,17 GB (занимает 1/2 DVDR, для записи нужно 1 болванка DVDR/RW)
 
 
Похожие темы
Форум Тема Автор Торрент Отв. Посл. сооб.
Зарубежное кино [DVDRip, Low-Res HDRip, и т.д.] Грань будущего / Edge of Tomorrow (Даг Лайман / Doug Liman) [2014 г., фантастика, боевик, HDRip] AVO (Есарев) 90ytr90
1 | 0

0 | 950

37

18.09.2014 07:14

Зарубежное кино [DVDRip, Low-Res HDRip, и т.д.] Грань будущего / Edge of Tomorrow (Даг Лайман) [2014 г., Фантастика, Боевик, HDRip] Dub (RUS, Лицензия) Ведьмочка
235 | 12

0 | 1167

65

27.09.2014 02:05

Зарубежное кино [DVDRip, Low-Res HDRip, и т.д.] Грань будущего / Edge of Tomorrow (Даг Лайман) [2014 г., Фантастика, Боевик, BDRip-AVC] 2-Dub (RUS / UKR, Лицензия) + AVO (RUS, Д. Есарев) + Original (ENG) + Subs (RUS, ENG, UKR) Ведьмочка
0 | 0

0 | 574

16

27.09.2014 09:07

Зарубежное кино [DVDRip, Low-Res HDRip, и т.д.] Грань будущего / Edge of Tomorrow (Даг Лайман / Doug Liman) [2014 г., фантастика, боевик, BDRip-AVC] Dub (Rus) + AVO (Есарев) + Dub (Ukr) + Original (Eng) + Subs 90ytr90
1 | 0

0 | 534

23

02.10.2014 05:38

Зарубежное кино [DVDRip, Low-Res HDRip, и т.д.] Грань будущего / Edge of Tomorrow (Даг Лайман / Doug Liman) [2014 г., фантастика, боевик, BDRip-AVC] Dub + Original (Eng) + Subs 90ytr90
5 | 0

0 | 515

23

02.10.2014 05:48

Зарубежное кино [DVDRip, Low-Res HDRip, и т.д.] Грань будущего / Edge of Tomorrow (Даг Лайман / Doug Liman) [2014 г., фантастика, боевик, BDRip-AVC] Dub + Subs 90ytr90
13 | 0

0 | 770

44

02.10.2014 05:55

Зарубежное кино [DVDRip, Low-Res HDRip, и т.д.] Грань будущего / Edge of Tomorrow (Даг Лайман / Doug Liman) [2014 г., фантастика, боевик, HDRip] Dub 90ytr90
3 | 0

0 | 426

10

27.11.2014 14:39

Зарубежное кино [DVDRip, Low-Res HDRip, и т.д.] Грань будущего / Edge of Tomorrow (Даг Лайман / Doug Liman) [2014 г., фантастика, боевик, BDRip] Dub (Rus) + Dub (Ukr) + Original (Eng) + Subs 90ytr90
10 | 2

0 | 546

20

27.11.2014 14:50

Зарубежное кино [DVD / HDDVD / BD / Remux] Грань будущего / Edge of Tomorrow (Даг Лайман) [2014 г., Фантастика, Боевик, Blu-Ray Remux 1080p] 2-Dub (RUS / UKR, Лицензия) + AVO (RUS, Д. Есарев) + Original (ENG) + Subs (RUS, ENG, UKR) Ведьмочка
1 | 0

0 | 913

15

27.09.2014 09:01

Зарубежное кино [HDDVDRip / BDRip / WEB-DL / HDTV 1080/720р] Грань будущего / Edge of Tomorrow (Даг Лайман) [2014 г., Фантастика, Боевик, BDRip 1080p] 2-Dub (RUS / UKR, Лицензия) + Original (ENG) + Subs (RUS, ENG, UKR) Ведьмочка
1 | 0

0 | 566

25

27.09.2014 00:40


Яндекс.Метрика powered by Sphinx


В Н И М А Н И Е
Сайт не распространяет и не хранит электронные версии произведений, а лишь бесплатно и без коммерческой выгоды (не требуя взамен платы,
SMS и т.д.) предоставляет доступ к создаваемому пользователями каталогу ссылок на торрент-файлы, которые содержат только списки хеш-сумм.
Убедительная просьба с жалобами обращаться напрямую к пользователю, разместившему торрент файл.

Вверх