Loading...
Error

Лучшие враги (1-30 серии из 30) (Богдан Дробязко) [2014 г., криминал, детектив, SatRip]

Статистика раздачи
Размер:  18,25 GB   |    Зарегистрирован:  2 года 1 месяц   |    Скачан:  7 раз

Полного источника не было: 5 месяцев 11 дней

Сидов:  0  |  0 KB/s  ]   Личеров:  0  |  0 KB/s  ]

* - сиды/пиры с внешних источников

   
 
Автор Сообщение

nemos Пол:Муж

25-Сен-2014 15:21

Лучшие враги


Год выпуска: 2014
Жанр: криминал, детектив
Страна: Россия
Режиссер: Богдан Дробязко
В ролях: Сергей Селин, Алексей Нилов, Вера Сотникова, Андрей Зибров, Сергей Апрельский, Анна Табанина, Алексей Фокин, Игорь Павлов, Ирина Обрезкова, Михаил Сидаш, Роман Притула, Геннадий Алимпиев, Александр Петров (X), Жанна Куприянова, Евгений Карпов, Ирина Ворон, Виктор Чупров, Владимир Чернышов, Кузьма Стомаченко, Владимир Бойков (III), Мария Жиганова, Андрей Гульнев, Валентина Лебедева (II), Артем Цыпин, Константин Фисенко, Денис Ворошилов, Александр Голубков (II), Антон Виноградов (II)
Сюжет фильма:
Главные герои этого сериала — Глеб Данилов, подполковник, начальник оперативно-розыскной группы ГУВД, и Владимир Старыгин, тоже подполковник, начальник аналитической группы. Два начальника, два опытных работника — они друг друга недолюбливают.

Данилов — простой мужик, через три слова мат, через два — рюмка. Старыгин — интеллигент, аристократ. Данилов, хоть и подполковник, ночами сидит с операми в засаде, спит в кабинете на стульях. Оперов любит по-отцовски, старается их прикрывать, если кто проколется. Подчиненные к нему, соответственно относятся, что называется, — в огонь и в воду. Старыгин сидит в уютном офисе в окружении трех сотрудников.


Качество видео: SatRip

Продолжительность: 00:45:51 серия
Формат: AVI
Видео: XviD, 720x400, 1800 kbps
Аудио: русский, MP3 2.0, 128 kbps

Код:

D:\Фильмы Раздача-1\Luchshie.vragi.2014.SATRip\Luchshie.vragi.01.2014.SATRip.avi
   General
      Complete name : D:\Фильмы Раздача-1\Luchshie.vragi.2014.SATRip\Luchshie.vragi.01.2014.SATRip.avi
      Format : AVI
      Format/Info : Audio Video Interleave
      File size : 636 MiB
      Duration : 45mn 51s
      Overall bit rate : 1 938 Kbps
      Writing application : VirtualDubMod 1.5.10.3 | www.virtualdub-fr.org || (build 2550/release)
      Writing library : VirtualDub build 32507/release
   Video #0
      ID : 0
      Format : MPEG-4 Visual
      Format profile : Advanced Simple@L5
      Format settings, BVOP : 2
      Format settings, QPel : No
      Format settings, GMC : No warppoints
      Format settings, Matrix : Default (MPEG)
      Codec ID : XVID
      Codec ID/Hint : XviD
      Duration : 45mn 51s
      Bit rate : 1 800 Kbps
      Width : 720 pixels
      Height : 400 pixels
      Display aspect ratio : 16:9
      Frame rate : 25.000 fps
      Color space : YUV
      Chroma subsampling : 4:2:0
      Bit depth : 8 bits
      Scan type : Progressive
      Compression mode : Lossy
      Bits/(Pixel*Frame) : 0.250
      Stream size : 590 MiB (93%)
      Writing library : XviD 1.2.1 (UTC 2008-12-04)
   Audio #1
      ID : 1
      Format : MPEG Audio
      Format version : Version 1
      Format profile : Layer 3
      Mode : Joint stereo
      Codec ID : 55
      Codec ID/Hint : MP3
      Duration : 45mn 51s
      Bit rate mode : Constant
      Bit rate : 128 Kbps
      Channel(s) : 2 channels
      Sampling rate : 48.0 KHz
      Compression mode : Lossy
      Stream size : 42.0 MiB (7%)
      Alignment : Aligned on interleaves
      Interleave, duration : 40 ms (1.00 video frame)
      Interleave, preload duration : 504 ms
      Writing library : LAME3.99r
      Encoding settings : -m j -V 4 -q 2 -lowpass 17 -b 128
picpicpicpicpicpicpicpicpic
Для увеличения картинки щелкните мышкой по превью

Этот торрент недоступен для скачивания без регистрации, однако доступен по публичной magnet-ссылке (источники с публичных трекеров). Перед использованием ссылки прочтите, пожалуйста Пользовательское соглашение, а также как можно дольше оставайтесь на раздаче! Для того, чтобы скачать сам торрент-файл (который видит больше источников), а также для того, чтобы поблагодарить релизера, вам необходимо зарегистрироваться. Если регистрироваться лень - вы можете также попробовать скачать релиз по нашим партнерским ссылкам ниже.

[underverse.su].t45795.torrent
Трекер: Зарегистрирован   [ 31.10.2014 19:59 ]  

Статус: проверено (by nemos at 31.10.2014 19:59)
Поблагодарили: 3 человека
Тип торрента: публичный - доступные источники с открытых трекеров: 
Размер: 18,25 GB (занимает 4,17 DVDR, для записи нужно 5 болванок DVDR/RW)
 
 
Похожие темы
Форум Тема Автор Торрент Отв. Посл. сооб.
xUSSR сериалы Лучшие враги (1-30 серии из 30) (Богдан Дробязко) [2014 г., криминал, детектив, DVB] nemos
1 | 0

1 | 1111

8

23.10.2014 14:58



Последний раз редактировалось: nemos (06.11.2014 06:39), всего редактировалось 23 раз(а)

nemos Пол:Муж

26-Сен-2014 15:53

Раздача обновлена! 30 серий.

Яндекс.Метрика powered by Sphinx


В Н И М А Н И Е
Сайт не распространяет и не хранит электронные версии произведений, а лишь бесплатно и без коммерческой выгоды (не требуя взамен платы,
SMS и т.д.) предоставляет доступ к создаваемому пользователями каталогу ссылок на торрент-файлы, которые содержат только списки хеш-сумм.
Убедительная просьба с жалобами обращаться напрямую к пользователю, разместившему торрент файл.

Вверх