Loading...
Error

Миллион способов потерять голову / A Million Ways to Die in the West (Сет МакФарлейн) [2014 г., комедия, вестерн, BDRip] Dub + Original + Sub (Rus,Ukr,Eng) HQ Underverse

Статистика раздачи
Размер:  2,17 GB   |    Зарегистрирован:  2 года 2 месяца   |    Скачан:  10 раз
Сидов:  1  |  0 KB/s  ]   Личеров:  0  |  0 KB/s  ]

* - сиды/пиры с внешних источников

   
 
Автор Сообщение

HQ Underverse 

24-Сен-2014 16:49

Миллион способов потерять голову / A Million Ways to Die in the West


Год выпуска: 2014
Жанр: комедия, вестерн
Страна: США
Режиссер: Сет МакФарлейн
В ролях: Сет МакФарлейн, Шарлиз Терон, Аманда Сайфред, Лиам Нисон, Джованни Рибизи, Нил Патрик Харрис, Сара Силверман, Кристофер Хэйген, Уэс Стьюди, Мэтт Кларк
Сюжет фильма:
Угораздило же влюбиться не в том месте и не в то время. Здесь хамят в ресторанах, о горячей воде слагают легенды, да и с транспортом полный коллапс. Но у таинственной незнакомки отменная фигура, да и стреляет она без промаха. Кто же по своей воле откажется от такой красотки?

  • Мировая премьера: 29 мая 2014
  • Российская премьера: 10 июля 2014, «UPI»

/
Качество видео: BDRip

Продолжительность: 01:55:54
Формат: avi
Видео: XviD, 720x304, 2217 kbps
Аудио #1: русский, дублированный [лицензия], AC3 5.1, 448 kbps
Аудио #2: английский, оригинал, AC3 5.1, 448 kbps (отдельным файлом: здесь)
Субтитры #1: внешние, SRT, русский
Субтитры #2: внешние, SRT, английский
Субтитры #3: внешние, SRT, украинский

Код:

General
Complete name                    : Y:\Миллион способов умереть на западе\A.Million.Ways.To.Die.In.The.West.2014.BDRip.XviD.AC3.Rus.D.HQ.Underverse.avi
Format                           : AVI
Format/Info                      : Audio Video Interleave
Format profile                   : OpenDML
File size                        : 2.17 GiB
Duration                         : 1h 55mn
Overall bit rate                 : 2 677 Kbps
Writing application              : VirtualDubMod 1.5.10.3 | www.virtualdub-fr.org || (build 2550/release)
Writing library                  : VirtualDubMod build 2550/release

Video
ID                               : 0
Format                           : MPEG-4 Visual
Format profile                   : Streaming Video@L1
Format settings, BVOP            : Yes
Format settings, QPel            : No
Format settings, GMC             : No warppoints
Format settings, Matrix          : Custom
Codec ID                         : XVID
Codec ID/Hint                    : XviD
Duration                         : 1h 55mn
Bit rate                         : 2 217 Kbps
Width                            : 720 pixels
Height                           : 304 pixels
Display aspect ratio             : 2.35
Frame rate                       : 23.976 fps
Resolution                       : 24 bits
Colorimetry                      : 4:2:0
Scan type                        : Progressive
Bits/(Pixel*Frame)               : 0.422
Stream size                      : 1.80 GiB (83%)
Writing library                  : XviD 64

Audio
ID                               : 1
Format                           : AC-3
Format/Info                      : Audio Coding 3
Codec ID                         : 2000
Duration                         : 1h 55mn
Bit rate mode                    : Constant
Bit rate                         : 448 Kbps
Channel(s)                       : 6 channels
Channel positions                : Front: L C R, Surround: L R, LFE
Sampling rate                    : 48.0 KHz
Stream size                      : 371 MiB (17%)
Alignment                        : Split accross interleaves
Interleave, duration             : 42 ms (1.00 video frame)
Interleave, preload duration     : 500 ms

General
Complete name                    : Y:\Миллион способов умереть на западе\A.Million.Ways.To.Die.In.The.West.2014.BDRip.XviD.AC3.Rus.D.HQ.Underverse.ENG.ac3
Format                           : AC-3
Format/Info                      : Audio Coding 3
File size                        : 371 MiB
Duration                         : 1h 55mn
Overall bit rate                 : 448 Kbps

Audio
Format                           : AC-3
Format/Info                      : Audio Coding 3
Duration                         : 1h 55mn
Bit rate mode                    : Constant
Bit rate                         : 448 Kbps
Channel(s)                       : 6 channels
Channel positions                : Front: L C R, Surround: L R, LFE
Sampling rate                    : 48.0 KHz
Stream size                      : 371 MiB (100%)

Релиз группы:

picpicpic
Для увеличения картинки щелкните мышкой по превью

Этот торрент недоступен для скачивания без регистрации, однако доступен по публичной magnet-ссылке (источники с публичных трекеров). Перед использованием ссылки прочтите, пожалуйста Пользовательское соглашение, а также как можно дольше оставайтесь на раздаче! Для того, чтобы скачать сам торрент-файл (который видит больше источников), а также для того, чтобы поблагодарить релизера, вам необходимо зарегистрироваться. Если регистрироваться лень - вы можете также попробовать скачать релиз по нашим партнерским ссылкам ниже.

[underverse.su].t44205.torrent
Трекер: Зарегистрирован   [ 24.09.2014 16:49 ]  

Статус: проверено (by HQ Underverse at 24.09.2014 16:49)
Поблагодарили: 3 человека
Тип торрента: публичный - доступные источники с открытых трекеров: 
Размер: 2,17 GB (занимает 1/2 DVDR, для записи нужно 1 болванка DVDR/RW)
 
 
Похожие темы
Форум Тема Автор Торрент Отв. Посл. сооб.
T Зарубежное кино [DVDRip, Low-Res HDRip, и т.д.] Миллион способов потерять голову / A Million Ways to Die in the West (Сет МакФарлейн) [2014 г., комедия, вестерн, WEB-DLRip] VO Паукан
1 | 0

0 | 1571

85

03.07.2014 13:55

T Зарубежное кино [DVDRip, Low-Res HDRip, и т.д.] Миллион способов потерять голову / A Million Ways to Die in the West (Сет МакФарлейн) [2014 г., комедия, вестерн, WEB-DLRip] VO + Original Паукан
0 | 0

0 | 1513

61

03.07.2014 13:59

T Зарубежное кино [DVDRip, Low-Res HDRip, и т.д.] Миллион способов потерять голову / A Million Ways to Die in the West (Сет МакФарлейн) [2014 г., комедия, вестерн, WEB-DLRip] MVO Паукан
0 | 0

0 | 1691

127

10.07.2014 05:55

T Зарубежное кино [DVDRip, Low-Res HDRip, и т.д.] Миллион способов потерять голову / A Million Ways to Die in the West (Сет МакФарлейн) [2014 г., комедия, вестерн, HDRip] Dub [чистый звук] + Original Паукан
0 | 0

0 | 769

28

04.09.2014 10:31

Зарубежное кино [DVDRip, Low-Res HDRip, и т.д.] Миллион способов потерять голову / A Million Ways to Die in the West (Сет МакФарлейн) [2014 г., Комедия, Вестерн, BDRip] Dub (RUS, Лицензия) + Original (ENG) + Subs (RUS, ENG, UKR) Ведьмочка
1 | 0

0 | 934

45

06.09.2014 23:00

Зарубежное кино [DVDRip, Low-Res HDRip, и т.д.] Миллион способов потерять голову / A Million Ways to Die in the West (Сет МакФарлейн) [2014 г., Комедия, Вестерн, BDRip-AVC] Dub (RUS, Лицензия) + MVO (RUS, FiliZa Studio) + Original (ENG) + Subs... Ведьмочка
1 | 0

0 | 1053

53

07.09.2014 00:21

Зарубежное кино [DVD / HDDVD / BD / Remux] Миллион способов потерять голову / A Million Ways to Die in the West (Сет МакФарлейн) [2014 г., Комедия, Вестерн, Blu-ray Remux 1080p] Dub (RUS, Лицензия) + Original (ENG) + Subs (RUS, ENG, UKR) Ведьмочка
0 | 0

0 | 724

8

06.09.2014 20:44

T Зарубежное кино [HDDVDRip / BDRip / WEB-DL / HDTV 1080/720р] Миллион способов потерять голову / A Million Ways to Die in the West (Сет МакФарлейн) [2014 г., комедия, вестерн, BDRip 720p] Dub [чистый звук] + Original Паукан
0 | 0

0 | 802

30

04.09.2014 10:38

Зарубежное кино [HDDVDRip / BDRip / WEB-DL / HDTV 1080/720р] Миллион способов потерять голову / A Million Ways to Die in the West (Сет МакФарлейн) [2014 г., Комедия, Вестерн, BDRip 1080p] Dub (RUS, Лицензия) + Original (ENG) + Subs (ROU, ENG, UKR) Ведьмочка
3 | 0

0 | 637

9

06.09.2014 20:54

Зарубежное кино [HDDVDRip / BDRip / WEB-DL / HDTV 1080/720р] Миллион способов потерять голову / A Million Ways to Die in the West (Сет МакФарлейн) [2014 г., Комедия, Вестерн, BDRip 720p] Dub (RUS, Лицензия) + MVO (RUS, FiliZa Studio) + Original (ENG) +... Ведьмочка
2 | 0

0 | 716

10

15.10.2014 14:40


Яндекс.Метрика powered by Sphinx


В Н И М А Н И Е
Сайт не распространяет и не хранит электронные версии произведений, а лишь бесплатно и без коммерческой выгоды (не требуя взамен платы,
SMS и т.д.) предоставляет доступ к создаваемому пользователями каталогу ссылок на торрент-файлы, которые содержат только списки хеш-сумм.
Убедительная просьба с жалобами обращаться напрямую к пользователю, разместившему торрент файл.

Вверх