Loading...
Error

Смешанные / Blended (Фрэнк Корачи / Frank Coraci) [2014 г., комедия, семейный, BDRip-AVC] Dub + Original + Sub (Rus,Eng,Ukr,Rom)

Статистика раздачи
Размер:  2,91 GB   |    Зарегистрирован:  2 года 2 месяца   |    Скачан:  5 раз

Полного источника не было: 4 дня

Сидов:  0  |  0 KB/s  ]   Личеров:  0  |  0 KB/s  ]

* - сиды/пиры с внешних источников

   
 
Автор Сообщение

Паукан Пол:Муж

23-Сен-2014 14:41

Смешанные / Blended



Страна: США / Gulfstream Pictures, Happy Madison Productions, Karz Entertainment, Warner Bros. Pictures, Warner Brothers
Жанр: комедия, семейный
Год выхода: 2014
Продолжительность: 01:57:14

Перевод: Профессиональный (дублированный)
Cубтитры: русские, английские, украинские, румынские
Оригинальная аудиодорожка: английский

Режиссер-постановщик: Фрэнк Корачи / Frank Coraci

Актеры: Адам Сэндлер, Дрю Бэрримор, Кевин Нилон, Терри Крюс, Венди МакЛендон-Кови, Эмма Фурманн, Белла Торн, Брэкстон Бэкхам, Аливия Элин Линд,
Джоэл МакХэйл...

Роли дублировали: Сергей Бурунов, Марианна Шульц, Анастасия Лапина, Полина Чекан, Василий Дахненко...

Описание: они не хотят больше видеть друг друга никогда! Полагая, что их знакомство окончено, обе семьи пользуются удобным случаем и отправляются в идеальный отпуск с детьми. А оказываются в одних и тех же гостиничных апартаментах на роскошном южноафриканском курорте аж на целую неделю.

Сэмпл

Качество: BDRip-AVC / Blu-ray 1080p
Формат: MKV

Видео: 1024x552, MPEG-4 AVC Video, 2463 kbps / 23,976 fps / 1.85:1 / High Profile 4.1 / 0.182 bit/pix
Аудио 1: Dolby Digital Audio Russian 448 kbps 5.1 / 48 kHz / DN -4dB
Аудио 2: Dolby Digital Audio English 5.1 / 48 kHz / 448 kbps / 24-bit
Аудио 3: Dolby Digital Audio Ukrainian 192 kbps 2.0 / 48 kHz / DN -4dB
Формат субтитров: SoftSub (srt)

Дополнительно: Фильм разбит на главы, как на оригинальном Blu-ray диске

Раздача от: New-Team
Общее
Полное имя : Smeshannye.2014.D.BDRip-AVC_[New-Team]_by_avproh.avi.mkv
Формат : Matroska
Версия формата : Version 4 / Version 2
Размер файла : 2,91 Гбайт
Продолжительность : 1 ч. 57 м.
Общий поток : 3554 Кбит/сек
Дата кодирования : UTC 2014-08-30 19:24:21
Программа кодирования : mkvmerge v7.1.0 ('Good Love') 64bit built on Jul 27 2014 13:06:55
Библиотека кодирования : libebml v1.3.0 + libmatroska v1.4.1
_STATISTICS_WRITING_APP : mkvmerge v7.1.0 ('Good Love') 64bit built on Jul 27 2014 13:06:55
_STATISTICS_WRITING_DATE_UTC : 2014-08-30 19:24:21
_STATISTICS_TAGS : BPS DURATION NUMBER_OF_FRAMES NUMBER_OF_BYTES
DURATION : 01:49:38.156000000
NUMBER_OF_FRAMES : 1930
NUMBER_OF_BYTES : 58626

Видео
Идентификатор : 1
Формат : AVC
Формат/Информация : Advanced Video Codec
Профиль формата : High@L4.1
Параметр CABAC формата : Да
Параметр ReFrames формата : 8 кадров
Идентификатор кодека : V_MPEG4/ISO/AVC
Продолжительность : 1 ч. 57 м.
Битрейт : 2463 Кбит/сек
Ширина : 1024 пикселя
Высота : 552 пикселя
Соотношение сторон : 1,85:1
Соотношение сторон в оригинале : 1,85:1
Режим частоты кадров : Постоянный
Частота кадров : 23,976 кадра/сек
Цветовое пространство : YUV
Субдискретизация насыщенности : 4:2:0
Битовая глубина : 8 бит
Тип развёртки : Прогрессивная
Бит/(Пиксели*Кадры) : 0.182
Размер потока : 1,96 Гбайт (67%)
Библиотека кодирования : x264 core 130 r2273 b3065e6
Настройки программы : cabac=1 / ref=8 / deblock=1:-3:-2 / analyse=0x3:0x113 / me=umh / subme=10 / psy=1 / psy_rd=1.00:0.05 / mixed_ref=1 / me_range=32 / chroma_me=1 / trellis=2 / 8x8dct=1 / cqm=0 / deadzone=21,11 / fast_pskip=0 / chroma_qp_offset=-3 / threads=9 / lookahead_threads=1 / sliced_threads=0 / nr=0 / decimate=0 / interlaced=0 / bluray_compat=0 / constrained_intra=0 / bframes=8 / b_pyramid=2 / b_adapt=2 / b_bias=0 / direct=3 / weightb=1 / open_gop=0 / weightp=2 / keyint=240 / keyint_min=24 / scenecut=40 / intra_refresh=0 / rc_lookahead=40 / rc=2pass / mbtree=1 / bitrate=2463 / ratetol=1.0 / qcomp=0.60 / qpmin=0 / qpmax=69 / qpstep=4 / cplxblur=20.0 / qblur=0.5 / ip_ratio=1.40 / aq=1:1.00
Язык : English
Default : Да
Forced : Нет
DURATION : 01:57:12.818000000
NUMBER_OF_FRAMES : 168619
NUMBER_OF_BYTES : 2165161069
_STATISTICS_WRITING_APP : mkvmerge v7.1.0 ('Good Love') 64bit built on Jul 27 2014 13:06:55
_STATISTICS_WRITING_DATE_UTC : 2014-08-30 19:24:21
_STATISTICS_TAGS : BPS DURATION NUMBER_OF_FRAMES NUMBER_OF_BYTES

Аудио #1
Идентификатор : 2
Формат : AC-3
Формат/Информация : Audio Coding 3
Расширение режима : CM (complete main)
Параметр Endianness формата : Big
Идентификатор кодека : A_AC3
Продолжительность : 1 ч. 57 м.
Вид битрейта : Постоянный
Битрейт : 448 Кбит/сек
Каналы : 6 каналов
Расположение каналов : Front: L C R, Side: L R, LFE
Частота : 48,0 КГц
Битовая глубина : 16 бит
Метод сжатия : С потерями
Размер потока : 376 Мбайт (13%)
Заголовок : Dub
Язык : Russian
Default : Да
Forced : Нет

Аудио #2
Идентификатор : 3
Формат : AC-3
Формат/Информация : Audio Coding 3
Расширение режима : CM (complete main)
Параметр Endianness формата : Big
Идентификатор кодека : A_AC3
Продолжительность : 1 ч. 57 м.
Вид битрейта : Постоянный
Битрейт : 192 Кбит/сек
Каналы : 2 канала
Расположение каналов : Front: L R
Частота : 48,0 КГц
Битовая глубина : 16 бит
Метод сжатия : С потерями
Размер потока : 161 Мбайт (5%)
Заголовок : Dub
Язык : Ukrainian
Default : Нет
Forced : Нет

Аудио #3
Идентификатор : 4
Формат : AC-3
Формат/Информация : Audio Coding 3
Расширение режима : CM (complete main)
Параметр Endianness формата : Big
Идентификатор кодека : A_AC3
Продолжительность : 1 ч. 57 м.
Вид битрейта : Постоянный
Битрейт : 448 Кбит/сек
Каналы : 6 каналов
Расположение каналов : Front: L C R, Side: L R, LFE
Частота : 48,0 КГц
Битовая глубина : 16 бит
Метод сжатия : С потерями
Размер потока : 376 Мбайт (13%)
Язык : English
Default : Нет
Forced : Нет

Текст #1
Идентификатор : 5
Формат : UTF-8
Идентификатор кодека : S_TEXT/UTF8
Идентификатор кодека/Информация : UTF-8 Plain Text
Заголовок : Forced
Язык : Russian
Default : Да
Forced : Нет

Текст #2
Идентификатор : 6
Формат : UTF-8
Идентификатор кодека : S_TEXT/UTF8
Идентификатор кодека/Информация : UTF-8 Plain Text
Заголовок : Full
Язык : Russian
Default : Нет
Forced : Нет

Текст #3
Идентификатор : 7
Формат : UTF-8
Идентификатор кодека : S_TEXT/UTF8
Идентификатор кодека/Информация : UTF-8 Plain Text
Заголовок : Forced
Язык : Ukrainian
Default : Нет
Forced : Нет

Текст #4
Идентификатор : 8
Формат : UTF-8
Идентификатор кодека : S_TEXT/UTF8
Идентификатор кодека/Информация : UTF-8 Plain Text
Заголовок : Full
Язык : Ukrainian
Default : Нет
Forced : Нет

Текст #5
Идентификатор : 9
Формат : UTF-8
Идентификатор кодека : S_TEXT/UTF8
Идентификатор кодека/Информация : UTF-8 Plain Text
Заголовок : Full
Язык : English
Default : Нет
Forced : Нет

Текст #6
Идентификатор : 10
Формат : UTF-8
Идентификатор кодека : S_TEXT/UTF8
Идентификатор кодека/Информация : UTF-8 Plain Text
Заголовок : SDH
Язык : English
Default : Нет
Forced : Нет

Текст #7
Идентификатор : 11
Формат : UTF-8
Идентификатор кодека : S_TEXT/UTF8
Идентификатор кодека/Информация : UTF-8 Plain Text
Заголовок : Colored
Язык : English
Default : Нет
Forced : Нет

Текст #8
Идентификатор : 12
Формат : UTF-8
Идентификатор кодека : S_TEXT/UTF8
Идентификатор кодека/Информация : UTF-8 Plain Text
Язык : Romanian
Default : Нет
Forced : Нет

Меню
00:00:00.000 : en:Chapter 01
00:10:32.715 : en:Chapter 02
00:21:16.147 : en:Chapter 03
00:32:56.431 : en:Chapter 04
00:42:23.622 : en:Chapter 05
00:49:49.193 : en:Chapter 06
00:58:11.820 : en:Chapter 07
01:10:44.781 : en:Chapter 08
01:19:45.404 : en:Chapter 09
01:33:10.291 : en:Chapter 10
01:41:25.244 : en:Chapter 11
01:50:36.046 : en:Chapter 12
pic pic pic
Для увеличения картинки щелкните мышкой по превью

Этот торрент недоступен для скачивания без регистрации, однако доступен по публичной magnet-ссылке (источники с публичных трекеров). Перед использованием ссылки прочтите, пожалуйста Пользовательское соглашение, а также как можно дольше оставайтесь на раздаче! Для того, чтобы скачать сам торрент-файл (который видит больше источников), а также для того, чтобы поблагодарить релизера, вам необходимо зарегистрироваться. Если регистрироваться лень - вы можете также попробовать скачать релиз по нашим партнерским ссылкам ниже.

[underverse.su].t44140.torrent
Трекер: Зарегистрирован   [ 23.09.2014 14:41 ]  

Статус: проверено (by Паукан at 23.09.2014 14:41)
Поблагодарили: пока никто не поблагодарил...
Тип торрента: публичный - доступные источники с открытых трекеров: 
Размер: 2,91 GB (занимает 2/3 DVDR, для записи нужно 1 болванка DVDR/RW)
 
 
Похожие темы
Форум Тема Автор Торрент Отв. Посл. сооб.
Зарубежное кино [DVDRip, Low-Res HDRip, и т.д.] Смешанные / Blended (Фрэнк Корачи / Frank Coraci) [2014 г., комедия, семейный, HDRip] Dub [лицензия] Паукан
18 | 0

0 | 388

15

23.09.2014 14:23

Зарубежное кино [DVDRip, Low-Res HDRip, и т.д.] Смешанные / Blended (Фрэнк Корачи / Frank Coraci) [2014 г., комедия, семейный, BDRip] Dub + Original Паукан
0 | 0

0 | 330

10

23.09.2014 14:32

Наше кино [DVDRip, Low-Res HDRip, и т.д.] Смешанные чувства (Георгий Малков) [2014, комедия, WEBRip] viktor.r-79
4 | 0

0 | 905

82

23.10.2014 08:45

Зарубежное кино [HDDVDRip / BDRip / WEB-DL / HDTV 1080/720р] Смешанные / Blended (Фрэнк Корачи / Frank Coraci) [2014 г., комедия, семейный, BDRip 720p] Dub (Rus, Ukr) + Original + Sub (Rus, Ukr, Eng) Паукан
16 | 2

0 | 236

4

23.09.2014 14:46

Зарубежное кино [HDDVDRip / BDRip / WEB-DL / HDTV 1080/720р] Смешанные / Blended (Фрэнк Корачи) [2014 г., комедия, BDRip 1080p] Dub + Original + Sub (Rus, Eng) Паукан
0 | 0

0 | 292

8

23.09.2014 14:51


Яндекс.Метрика powered by Sphinx


В Н И М А Н И Е
Сайт не распространяет и не хранит электронные версии произведений, а лишь бесплатно и без коммерческой выгоды (не требуя взамен платы,
SMS и т.д.) предоставляет доступ к создаваемому пользователями каталогу ссылок на торрент-файлы, которые содержат только списки хеш-сумм.
Убедительная просьба с жалобами обращаться напрямую к пользователю, разместившему торрент файл.

Вверх