Loading...
Error

Смешанные / Blended (Фрэнк Корачи / Frank Coraci) [2014 г., комедия, семейный, BDRip] Dub + Original

Статистика раздачи
Размер:  2,19 GB   |    Зарегистрирован:  2 года 2 месяца   |    Скачан:  10 раз

Полного источника не было: 6 месяцев

Сидов:  0  |  0 KB/s  ]   Личеров:  0  |  0 KB/s  ]

* - сиды/пиры с внешних источников

   
 
Автор Сообщение

Паукан Пол:Муж

23-Сен-2014 14:32

Смешанные / Blended



Страна: США / Gulfstream Pictures, Happy Madison Productions, Karz Entertainment, Warner Bros. Pictures, Warner Brothers
Жанр: комедия, семейный
Год выпуска: 2014
Продолжительность: 01:57:14

Перевод: Профессиональный (дублированный)
Cубтитры: нет
Оригинальная аудиодорожка: английский

Режиссер: Фрэнк Корачи / Frank Coraci

Актеры фильма: Адам Сэндлер, Дрю Бэрримор, Кевин Нилон, Терри Крюс, Венди МакЛендон-Кови, Эмма Фурманн, Белла Торн, Брэкстон Бэкхам, Аливия Элин Линд,
Джоэл МакХэйл...

Роли дублировали: Сергей Бурунов, Марианна Шульц, Анастасия Лапина, Полина Чекан, Василий Дахненко...

Описание: они не хотят больше видеть друг друга никогда! Полагая, что их знакомство окончено, обе семьи пользуются удобным случаем и отправляются в идеальный отпуск с детьми. А оказываются в одних и тех же гостиничных апартаментах на роскошном южноафриканском курорте аж на целую неделю.

Сэмпл

Качество: BDRip / Blu-ray 1080p
Формат: AVI

Видео: 720x384, XviD, 1767 kbps / 23,976 fps / 1.85:1 / High Profile 4.1 / 0.267 bit/pix
Звук 1: Dolby Digital Audio Russian 448 kbps 5.1 / 48 kHz / DN -4dB
Звук 2: Dolby Digital Audio English 448 kbps 5.1 / 48 kHz / DN -4dB

Раздача от: NewTeam
Общее
Полное имя : Smeshannye.2014.D.BDRip.2.18GB_[New-Team]_by_avproh.avi
Формат : AVI
Формат/Информация : Audio Video Interleave
Профиль формата : OpenDML
Размер файла : 2,19 Гбайт
Продолжительность : 1 ч. 57 м.
Общий поток : 2681 Кбит/сек
Программа кодирования : VirtualDubModRus 1.5.10.2 (build 2542/release)
Библиотека кодирования : VirtualDubMod build 2542/release

Видео
Идентификатор : 0
Формат : MPEG-4 Visual
Профиль формата : Advanced Simple@L5
Параметр BVOP формата : 1
Параметр QPel формата : Нет
Параметр GMC формата : Без точки перехода
Параметр матрицы формата : Выборочная
Идентификатор кодека : XVID
Идентификатор кодека/Подсказка : XviD
Продолжительность : 1 ч. 57 м.
Битрейт : 1767 Кбит/сек
Ширина : 720 пикселей
Высота : 384 пикселя
Соотношение сторон : 1,85:1
Частота кадров : 23,976 кадра/сек
Цветовое пространство : YUV
Субдискретизация насыщенности : 4:2:0
Битовая глубина : 8 бит
Тип развёртки : Прогрессивная
Метод сжатия : С потерями
Бит/(Пиксели*Кадры) : 0.267
Размер потока : 1,45 Гбайт (66%)
Библиотека кодирования : XviD 1.2.1 (UTC 2008-12-04)

Аудио #1
Идентификатор : 1
Формат : AC-3
Формат/Информация : Audio Coding 3
Расширение режима : CM (complete main)
Параметр Endianness формата : Big
Идентификатор кодека : 2000
Продолжительность : 1 ч. 57 м.
Вид битрейта : Постоянный
Битрейт : 448 Кбит/сек
Каналы : 6 каналов
Расположение каналов : Front: L C R, Side: L R, LFE
Частота : 48,0 КГц
Битовая глубина : 16 бит
Метод сжатия : С потерями
Размер потока : 376 Мбайт (17%)
Выравнивание : Разделение по промежуткам
Продолжительность промежутка : 42 мс. (1,00 видеокадр)
Время предзагрузки промежутка : 500 мс.

Аудио #2
Идентификатор : 2
Формат : AC-3
Формат/Информация : Audio Coding 3
Расширение режима : CM (complete main)
Параметр Endianness формата : Big
Идентификатор кодека : 2000
Продолжительность : 1 ч. 57 м.
Вид битрейта : Постоянный
Битрейт : 448 Кбит/сек
Каналы : 6 каналов
Расположение каналов : Front: L C R, Side: L R, LFE
Частота : 48,0 КГц
Битовая глубина : 16 бит
Метод сжатия : С потерями
Размер потока : 376 Мбайт (17%)
Выравнивание : Разделение по промежуткам
Продолжительность промежутка : 42 мс. (1,00 видеокадр)
Время предзагрузки промежутка : 500 мс.
pic pic pic
Для увеличения картинки щелкните мышкой по превью

Этот торрент недоступен для скачивания без регистрации, однако доступен по публичной magnet-ссылке (источники с публичных трекеров). Перед использованием ссылки прочтите, пожалуйста Пользовательское соглашение, а также как можно дольше оставайтесь на раздаче! Для того, чтобы скачать сам торрент-файл (который видит больше источников), а также для того, чтобы поблагодарить релизера, вам необходимо зарегистрироваться. Если регистрироваться лень - вы можете также попробовать скачать релиз по нашим партнерским ссылкам ниже.

[underverse.su].t44137.torrent
Трекер: Зарегистрирован   [ 23.09.2014 14:32 ]  

Статус: проверено (by Паукан at 23.09.2014 14:32)
Поблагодарили: 1 человек
Тип торрента: публичный - доступные источники с открытых трекеров: 
Размер: 2,19 GB (занимает 0,5 DVDR, для записи нужно 1 болванка DVDR/RW)
 
 
Похожие темы
Форум Тема Автор Торрент Отв. Посл. сооб.
Зарубежное кино [DVDRip, Low-Res HDRip, и т.д.] Смешанные / Blended (Фрэнк Корачи / Frank Coraci) [2014 г., комедия, семейный, HDRip] Dub [лицензия] Паукан
18 | 0

0 | 388

15

23.09.2014 14:23

Зарубежное кино [DVDRip, Low-Res HDRip, и т.д.] Смешанные / Blended (Фрэнк Корачи / Frank Coraci) [2014 г., комедия, семейный, BDRip-AVC] Dub + Original + Sub (Rus,Eng,Ukr,Rom) Паукан
1 | 0

0 | 273

5

23.09.2014 14:41

Наше кино [DVDRip, Low-Res HDRip, и т.д.] Смешанные чувства (Георгий Малков) [2014, комедия, WEBRip] viktor.r-79
4 | 0

0 | 905

82

23.10.2014 08:45

Зарубежное кино [HDDVDRip / BDRip / WEB-DL / HDTV 1080/720р] Смешанные / Blended (Фрэнк Корачи / Frank Coraci) [2014 г., комедия, семейный, BDRip 720p] Dub (Rus, Ukr) + Original + Sub (Rus, Ukr, Eng) Паукан
16 | 2

0 | 236

4

23.09.2014 14:46

Зарубежное кино [HDDVDRip / BDRip / WEB-DL / HDTV 1080/720р] Смешанные / Blended (Фрэнк Корачи) [2014 г., комедия, BDRip 1080p] Dub + Original + Sub (Rus, Eng) Паукан
0 | 0

0 | 292

8

23.09.2014 14:51


Яндекс.Метрика powered by Sphinx


В Н И М А Н И Е
Сайт не распространяет и не хранит электронные версии произведений, а лишь бесплатно и без коммерческой выгоды (не требуя взамен платы,
SMS и т.д.) предоставляет доступ к создаваемому пользователями каталогу ссылок на торрент-файлы, которые содержат только списки хеш-сумм.
Убедительная просьба с жалобами обращаться напрямую к пользователю, разместившему торрент файл.

Вверх