Loading...
Error

Мерцающий / The Glimmer Man (Джон Грэй / John Gray) [1996, США, боевик, триллер, драма, комедия, криминал, DVDRip] MVO (Россия) + DVO (НТВ) + AVO (Кашкин) + Original Eng

Статистика раздачи
Размер:  1,48 GB   |    Зарегистрирован:  2 года 2 месяца   |    Скачан:  5 раз

Полного источника не было: 1 год

Сидов:  0  |  0 KB/s  ]   Личеров:  0  |  0 KB/s  ]

* - сиды/пиры с внешних источников

   
 
Автор Сообщение

uzi2009 Пол:Муж

23-Сен-2014 10:36

Мерцающий / The Glimmer Man

Год выпуска: 1996
Страна: США
Жанр: приключения, боевик, драма, мелодрама

Продолжительность: 01:27:51
Перевод: Профессиональный (многоголосый закадровый) - Россия / РЕН ТВ / ТВ3
Перевод 2: Профессиональный (двухголосый закадровый) - НТВ
Перевод 3: Авторский (одноголосый закадровый) - Александр Кашкин
Cубтитры: нет
Оригинальная аудиодорожка: английский

Режиссер: Джон Грэй / John Gray

В ролях: Стивен Сигал (Lt. Jack Cole), Кинен Айвори Уайанс (Det. Jim Campbell), Боб Гантон (Frank Deverell), Брайан Кокс (Mr. Smith), Джон М. Джексон (Donald Cunningham), Мишель Джонсон (Jessica Cole), Стивен Тоболовски (Christopher Maynard), Питер Джейсон (Millie's Father), Райан Кутрона (Capt. Harris), Ричард Гант (Det. Roden)
Мировая премьера: 4 октября 1996
Описание: Перед полицейским управлением Лос-Анджелеса поставлена задача: найти и обезвредить преступника, на счету которого немало жертв. Непосредственно по следу убийцы идут два сыщика: Джек Коул и Джим Кэмпбелл. В таком ответственном и рискованном деле, как охота на убийцу, от партнера зависит многое, а иногда все. Однако именно эти двое полицейских решительно неспособны понять друг друга. Суровый и немногословный Коул, воспитанный на восточной философии и боевых искусствах, не может не удивляться своему напарнику, балагуру и шутнику. А Кэмпбелла, как человека здравомыслящего и житейски опытного, раздражает постоянная склонность партнера к мордобою и прочим резким действиям. Порой ему вообще начинает казаться, что преступник, которого они ищут, не кто иной, как его напарник Коул.
Доп. информация:
За исходник видео большое спасибо waren.
За запись перевода с телеканала НТВ через видеомагнитофон и оцифровку с видеокассеты большое спасибо серый75.
За оцифровку перевода Кашкина с видеокассеты большое спасибо Ansent.
Запись перевода Россия с последнего теле-показа по ТВ3 и синхрон всех переводов - JUSTKANT.
Информация о переводах:
Переводы НТВ и Кашкин на трекере появляются впервые.
Перевод Россия в данной раздаче имеет более качественный звук + полный синхронизированный перевод.
Перевод НТВ имеет несколько вставок дубляжа Мост Видео на тех местах, где звук прерывался.
На русский язык фильм озвучен по заказу телеканала Россия в 2006 году. Часть мужских ролей озвучивали Андрей Казанцев и Валерий Сторожик.
На русский язык фильм озвучен телекомпанией НТВ. Мужские роли озвучивал Александр Рахленко.
Рейтинг
kinopoisk.ru: 6.544 (1720)
imdb.com: 5.30 (13 262)
MPAA: R - Лицам до 17 лет обязательно присутствие взрослого
Качество: DVDRip
Формат: AVI
Видео: XviD, 720x416 (16:9), 25.000 fps, 1449 kbps avg
Аудио:
1 - 48 khz, AC3 Dolby Digital, 2/0 (L,R) ch, ~192 kbps [Россия / РЕН ТВ / ТВ3] IPTVRip
2 - 48 khz, AC3 Dolby Digital, 2/0 (L,R) ch, ~192 kbps [НТВ] VHSRip
3 - 48 khz, AC3 Dolby Digital, 6/0 (L,C,R,l,r) + LFE ch, ~384 kbps [Английский]
4 - 48 khz, AC3 Dolby Digital, 2/0 (L,R) ch, ~192 kbps [Кашкин] VHSRip отдельным файлом
Общее
Полное имя : E:\Альберт\Downloads\Мерцающий Россия + НТВ + Кашкин\Мерцающий Россия + НТВ.avi
Формат : AVI
Формат/Информация : Audio Video Interleave
Размер файла : 1,36 Гбайт
Продолжительность : 1 ч. 27 м.
Общий поток : 2224 Кбит/сек
Программа кодирования : VirtualDubMod 1.5.10.2 (build 2540/release)
Библиотека кодирования : VirtualDubMod build 2540/release

Видео
Идентификатор : 0
Формат : MPEG-4 Visual
Профиль формата : Advanced Simple@L5
Параметр BVOP формата : 1
Параметр QPel формата : Нет
Параметр GMC формата : Без точки перехода
Параметр матрицы формата : Выборочная
Идентификатор кодека : XVID
Идентификатор кодека/Подсказка : XviD
Продолжительность : 1 ч. 27 м.
Битрейт : 1449 Кбит/сек
Ширина : 720 пикселей
Высота : 416 пикселей
Соотношение сторон : 16:9
Частота кадров : 25,000 кадров/сек
Цветовое пространство : YUV
Субдискретизация насыщенности : 4:2:0
Битовая глубина : 8 бит
Тип развёртки : Прогрессивная
Метод сжатия : С потерями
Бит/(Пиксели*Кадры) : 0.194
Размер потока : 911 Мбайт (65%)
Библиотека кодирования : XviD 1.2.0.dev47 (UTC 2006-11-01)

Аудио #1
Идентификатор : 1
Формат : AC-3
Формат/Информация : Audio Coding 3
Расширение режима : CM (complete main)
Параметр Endianness формата : Big
Идентификатор кодека : 2000
Продолжительность : 1 ч. 26 м.
Вид битрейта : Постоянный
Битрейт : 192 Кбит/сек
Каналы : 2 канала
Расположение каналов : Front: L R
Частота : 48,0 КГц
Битовая глубина : 16 бит
Метод сжатия : С потерями
Размер потока : 119 Мбайт (8%)
Выравнивание : Разделение по промежуткам
Продолжительность промежутка : 41 мс. (1,02 видеокадр)
Время предзагрузки промежутка : 500 мс.

Аудио #2
Идентификатор : 2
Формат : AC-3
Формат/Информация : Audio Coding 3
Расширение режима : CM (complete main)
Параметр Endianness формата : Big
Идентификатор кодека : 2000
Продолжительность : 1 ч. 26 м.
Вид битрейта : Постоянный
Битрейт : 192 Кбит/сек
Каналы : 2 канала
Расположение каналов : Front: L R
Частота : 48,0 КГц
Битовая глубина : 16 бит
Метод сжатия : С потерями
Размер потока : 119 Мбайт (8%)
Выравнивание : Разделение по промежуткам
Продолжительность промежутка : 41 мс. (1,02 видеокадр)
Время предзагрузки промежутка : 500 мс.

Аудио #3
Идентификатор : 3
Формат : AC-3
Формат/Информация : Audio Coding 3
Расширение режима : CM (complete main)
Параметр Endianness формата : Big
Идентификатор кодека : 2000
Продолжительность : 1 ч. 26 м.
Вид битрейта : Постоянный
Битрейт : 384 Кбит/сек
Каналы : 6 каналов
Расположение каналов : Front: L C R, Side: L R, LFE
Частота : 48,0 КГц
Битовая глубина : 16 бит
Метод сжатия : С потерями
Задержка видео : 24 мс.
Размер потока : 237 Мбайт (17%)
Выравнивание : Разделение по промежуткам
Продолжительность промежутка : 41 мс. (1,02 видеокадр)
Время предзагрузки промежутка : 500 мс.
pic pic pic pic

Этот торрент недоступен для скачивания без регистрации, однако доступен по публичной magnet-ссылке (источники с публичных трекеров). Перед использованием ссылки прочтите, пожалуйста Пользовательское соглашение, а также как можно дольше оставайтесь на раздаче! Для того, чтобы скачать сам торрент-файл (который видит больше источников), а также для того, чтобы поблагодарить релизера, вам необходимо зарегистрироваться. Если регистрироваться лень - вы можете также попробовать скачать релиз по нашим партнерским ссылкам ниже.

[underverse.su].t44124.torrent
Трекер: Зарегистрирован   [ 23.09.2014 10:36 ]  

Статус: проверено (by Паукан at 23.09.2014 12:03)
Поблагодарили: пока никто не поблагодарил...
Тип торрента: публичный - доступные источники с открытых трекеров: 
Размер: 1,48 GB (занимает 0,34 DVDR, для записи нужно 1 болванка DVDR/RW)
 
 

Яндекс.Метрика powered by Sphinx


В Н И М А Н И Е
Сайт не распространяет и не хранит электронные версии произведений, а лишь бесплатно и без коммерческой выгоды (не требуя взамен платы,
SMS и т.д.) предоставляет доступ к создаваемому пользователями каталогу ссылок на торрент-файлы, которые содержат только списки хеш-сумм.
Убедительная просьба с жалобами обращаться напрямую к пользователю, разместившему торрент файл.

Вверх