Loading...
Error

Приказано уничтожить / Решение о ликвидации / Executive Decision (Стюарт Бейрд / Stuart Baird) [1996, США, боевик, триллер, приключения, BDRip] Dub (R5 / Мост-Видео)

Статистика раздачи
Размер:  1,46 GB   |    Зарегистрирован:  2 года 2 месяца   |    Скачан:  5 раз

Полного источника не было: 7 месяцев

Сидов:  0  |  0 KB/s  ]   Личеров:  0  |  0 KB/s  ]

* - сиды/пиры с внешних источников

   
 
Автор Сообщение

uzi2009 Пол:Муж

23-Сен-2014 07:52

Приказано уничтожить / Executive Decision


Страна: США
Жанр: боевик, триллер, приключения
Год выпуска: 1996
Продолжительность: 02:12:41

Перевод: Профессиональный (дублированный) Лицензия R5 "Мост-Видео"
Cубтитры: нет

Режиссер: Стюарт Бейрд / Stuart Baird

В ролях: Курт Рассел, Стивен Сигал, Холли Берри, Джон Легуизамо, Оливер Платт, Джо Мортон, Дэвид Суше, Б.Д. Вонг, Лен Кариу, Уип Хабли, Андреас Кацулас, Мэри Эллен Трейнор, Марла Мэйплс, Дж.Т. Уолш[/color]

Описание: Задание: проникнуть на борт находящегося в воздухе на высоте 5 миль над землей «Боинга — 747», захваченного террористами. Провести операцию скрытно. Найти и обезвредить находящуюся на боевом взводе бомбу, способную уничтожить все население восточных прибрежных штатов. Сделать это в отсутствии радиосвязи с землей, прежде, чем у военных сдадут нервы и они отдадут приказ уничтожить авиалайнер ракетной атакой.

Доп. информация:

Качество видео: BDRip
Формат видео: AVI

Видео: 720x304 (2.37:1), 23.976 fps, XviD build 73 ~1177 kbps avg, 0.22 bit/pixel
Аудио: 48 kHz, AC3 Dolby Digital, 3/2 (L,C,R,l,r) + LFE ch, ~384 kbps
Общее
Полное имя : C:\Documents and Settings\Пользователь\Рабочий стол\Торрентс.ру\Executive.Decision.1996.BDRip.Dub_by_LBS.avi
Формат : AVI
Формат/Информация : Audio Video Interleave
Размер файла : 1,46 Гбайт
Продолжительность : 2 ч. 12 м.
Общий поток : 1571 Кбит/сек
Режиссёр : Last Boy Scout
Программа кодирования : VirtualDubMod 1.5.10.3 | www.virtualdub-fr.org || (build 2550/release)
Правообладатель : *другой трекер* 11.01.2014
Примечание : BDRip Dub (R5/Мост-Видео)

Видео
Идентификатор : 0
Формат : MPEG-4 Visual
Профиль формата : Advanced Simple@L5
Параметр BVOP формата : 1
Параметр QPel формата : Нет
Параметр GMC формата : Без точки перехода
Параметр матрицы формата : Выборочная
Идентификатор кодека : XVID
Идентификатор кодека/Подсказка : XviD
Продолжительность : 2 ч. 12 м.
Битрейт : 1178 Кбит/сек
Ширина : 720 пикселей
Высота : 304 пикселя
Соотношение сторон : 2,35:1
Частота кадров : 23,976 кадра/сек
Цветовое пространство : YUV
Субдискретизация насыщенности : 4:2:0
Битовая глубина : 8 бит
Тип развёртки : Прогрессивная
Метод сжатия : С потерями
Бит/(Пиксели*Кадры) : 0.224
Размер потока : 1,09 Гбайт (75%)
Библиотека кодирования : XviD 73

Аудио
Идентификатор : 1
Формат : AC-3
Формат/Информация : Audio Coding 3
Расширение режима : CM (complete main)
Параметр Endianness формата : Big
Идентификатор кодека : 2000
Продолжительность : 2 ч. 12 м.
Вид битрейта : Постоянный
Битрейт : 384 Кбит/сек
Каналы : 6 каналов
Расположение каналов : Front: L C R, Side: L R, LFE
Частота : 48,0 КГц
Битовая глубина : 16 бит
Метод сжатия : С потерями
Размер потока : 364 Мбайт (24%)
Выравнивание : Разделение по промежуткам
Продолжительность промежутка : 42 мс. (1,00 видеокадр)
Время предзагрузки промежутка : 500 мс.
pic pic pic pic pic

Этот торрент недоступен для скачивания без регистрации, однако доступен по публичной magnet-ссылке (источники с публичных трекеров). Перед использованием ссылки прочтите, пожалуйста Пользовательское соглашение, а также как можно дольше оставайтесь на раздаче! Для того, чтобы скачать сам торрент-файл (который видит больше источников), а также для того, чтобы поблагодарить релизера, вам необходимо зарегистрироваться. Если регистрироваться лень - вы можете также попробовать скачать релиз по нашим партнерским ссылкам ниже.

[underverse.su].t44114.torrent
Трекер: Зарегистрирован   [ 23.09.2014 07:52 ]  

Статус: проверено (by Ведьмочка at 23.09.2014 13:02)
Поблагодарили: пока никто не поблагодарил...
Тип торрента: публичный - доступные источники с открытых трекеров: 
Размер: 1,46 GB (занимает 1/3 DVDR, для записи нужно 1 болванка DVDR/RW)
 
 
Похожие темы
Форум Тема Автор Торрент Отв. Посл. сооб.
Зарубежное кино [DVDRip, Low-Res HDRip, и т.д.] Приказано уничтожить / Executive Decision (Стюарт Бейрд / Stuart Baird) [1996, США, боевик, триллер, приключения, BDRip-AVC] 2x Dub + MVO + AVO (Гаврилов) + Original (Eng) + Sub (Rus, Eng) uzi2009
2 | 1

0 | 315

1

23.09.2014 08:27

Action [FPS/TPS] Приказано уничтожить: Снайпер - Московская миссия [2012 г., Action, 3D, 1st persoon] RUS P.O.C.O.X.A
1 | 0

5 | 1876

38

29.03.2012 07:18

T Новинки кино [CAMRip, TS, DVDScr, WP, TC] Приказано забыть (Хусейн Эркенов) [2014 г., драма, история, DVDScr] Dub 90ytr90
4 | 0

0 | 1015

38

11.03.2015 03:38

* Архив Приказано уничтожить. Операция "Китайская шкатулка" (Сергей Бобров ) [2009 г., Драма, Приключения, Военный , DVD-9] andrej-ku

1 | 1219

30.08.2010 01:30


Яндекс.Метрика powered by Sphinx


В Н И М А Н И Е
Сайт не распространяет и не хранит электронные версии произведений, а лишь бесплатно и без коммерческой выгоды (не требуя взамен платы,
SMS и т.д.) предоставляет доступ к создаваемому пользователями каталогу ссылок на торрент-файлы, которые содержат только списки хеш-сумм.
Убедительная просьба с жалобами обращаться напрямую к пользователю, разместившему торрент файл.

Вверх