Loading...
Error

Ментовские войны (8 сезон: 1-16 серии из 16) (Денис Скворцов) [2014 г., Боевик, детектив, SatRip]

Статистика раздачи
Размер:  9,08 GB   |    Зарегистрирован:  2 года 2 месяца   |    Скачан:  31 раз

Полного источника не было: 1 месяц 27 дней

Сидов:  0  |  0 KB/s  ]   Личеров:  0  |  0 KB/s  ]

* - сиды/пиры с внешних источников

   
 
Автор Сообщение

nemos Пол:Муж

23-Сен-2014 07:17

Ментовские войны-8


Год выпуска: 2014
Жанр: Боевик, детектив
Страна: Россия
Режиссер: Денис Скворцов
В ролях: Александр Устюгов, Дмитрий Быковский-Ромашов, Всеволод Цурило, Анатолий Узденский, Сергей Лысов, Ольга Иванова, Александр Лисицин, Руслан Ибрагимов, Андрей Родимов, Дарья Юргенс
Сюжет фильма:
Перевод в районный отдел лишает Романа Шилова многих привычных рычагов контроля над криминальной обстановкой в городе, но также развязывает ему руки. С помощью своих верных друзей — Павла Арнаутова и Евгения Иванова по прозвищу «Джексон» — он продолжает внимательно следить за обстановкой в ГУВД, и случай напомнить о себе предоставляется Роману очень скоро. Расследование махинаций начальника УБЭП Каспяряна приводит Романа к раскрытию целой системы торговли должностями и вымогательства под прикрытием высоких званий. Дубровский, не растерявший и толики своего былого влияния, продолжает насаждать коррупцию в Петербурге, но и Роман не думает ему уступать. Тем более, что в его руках наконец-то появляются сильные козыри против двух своих старых врагов — Ковалёва и Демидова…


Качество видео: SatRip

Продолжительность: 00:44:27 серия
Формат: AVI
Видео: XviD, 720x400, 1529 kbps
Аудио: русский, AC3 2.0, 192 kbps

Код:

D:\Фильмы Раздача-1\Mentovskie.voyny.8..2014.SATRip.RG.Russkie.serialy.&.Files-x-Generalfilm\Mentovskie.voyny.8.01.seriya..2014.SATRip.RG.Russkie.serialy.&.Files-x-Generalfilm.avi
   General
      Complete name : D:\Фильмы Раздача-1\Mentovskie.voyny.8..2014.SATRip.RG.Russkie.serialy.&.Files-x-Generalfilm\Mentovskie.voyny.8.01.seriya..2014.SATRip.RG.Russkie.serialy.&.Files-x-Generalfilm.avi
      Format : AVI
      Format/Info : Audio Video Interleave
      File size : 550 MiB
      Duration : 44mn 27s
      Overall bit rate : 1 730 Kbps
      Writing application : VirtualDubMod 1.5.10.3 | www.virtualdub-fr.org || (build 2550/release)
      Writing library : VirtualDubMod build 2550/release
   Video #0
      ID : 0
      Format : MPEG-4 Visual
      Format profile : Advanced Simple@L5
      Format settings, BVOP : 1
      Format settings, QPel : No
      Format settings, GMC : No warppoints
      Format settings, Matrix : Default (H.263)
      Codec ID : XVID
      Codec ID/Hint : XviD
      Duration : 44mn 27s
      Bit rate : 1 529 Kbps
      Width : 720 pixels
      Height : 400 pixels
      Display aspect ratio : 16:9
      Frame rate : 25.000 fps
      Color space : YUV
      Chroma subsampling : 4:2:0
      Bit depth : 8 bits
      Scan type : Progressive
      Compression mode : Lossy
      Bits/(Pixel*Frame) : 0.212
      Stream size : 486 MiB (88%)
      Writing library : XviD 1.2.1 (UTC 2008-12-04)
   Audio #1
      ID : 1
      Format : AC-3
      Format/Info : Audio Coding 3
      Mode extension : CM (complete main)
      Format settings, Endianness : Big
      Codec ID : 2000
      Duration : 44mn 27s
      Bit rate mode : Constant
      Bit rate : 192 Kbps
      Channel(s) : 2 channels
      Channel positions : Front: L R
      Sampling rate : 48.0 KHz
      Bit depth : 16 bits
      Compression mode : Lossy
      Stream size : 61.0 MiB (11%)
      Alignment : Split accross interleaves
      Interleave, duration : 40 ms (1.00 video frame)
      Interleave, preload duration : 500 ms
picpicpicpicpicpicpicpicpicpicpicpic
Для увеличения картинки щелкните мышкой по превью

Этот торрент недоступен для скачивания без регистрации, однако доступен по публичной magnet-ссылке (источники с публичных трекеров). Перед использованием ссылки прочтите, пожалуйста Пользовательское соглашение, а также как можно дольше оставайтесь на раздаче! Для того, чтобы скачать сам торрент-файл (который видит больше источников), а также для того, чтобы поблагодарить релизера, вам необходимо зарегистрироваться. Если регистрироваться лень - вы можете также попробовать скачать релиз по нашим партнерским ссылкам ниже.

[underverse.su].t44512.torrent
Трекер: Зарегистрирован   [ 30.09.2014 18:15 ]  

Статус: проверено (by nemos at 30.09.2014 18:15)
Поблагодарили: 2 человека
Тип торрента: публичный - доступные источники с открытых трекеров: 
Размер: 9,08 GB (занимает 2,07 DVDR, для записи нужно 3 болванки DVDR/RW)
 
 
Похожие темы
Форум Тема Автор Торрент Отв. Посл. сооб.
xUSSR сериалы Ментовские войны / Сезон 7 / Серии 1-16 (16) (Сергей Раевский, Денис Скворцов) [2013 г., боевик, детектив, криминал, WEBDLRip] Чертёнок
0 | 1

2 | 654

48

09.09.2014 16:29

xUSSR сериалы [BD / Remux / BDRip / WEB-DL / HDTV 1080/720р] Ментовские войны / Сезон 7 / Серии 1-16 (16) (Сергей Раевский, Денис Скворцов) [2013 г., боевик, детектив, криминал, WEBDLRip 720p] Чертёнок
4 | 2

1 | 1280

43

27.04.2013 01:54



Последний раз редактировалось: nemos (06.11.2014 06:40), всего редактировалось 5 раз(а)

nemos Пол:Муж

24-Сен-2014 07:13

Торр файл обновлён! 16-ать серий.

Яндекс.Метрика powered by Sphinx


В Н И М А Н И Е
Сайт не распространяет и не хранит электронные версии произведений, а лишь бесплатно и без коммерческой выгоды (не требуя взамен платы,
SMS и т.д.) предоставляет доступ к создаваемому пользователями каталогу ссылок на торрент-файлы, которые содержат только списки хеш-сумм.
Убедительная просьба с жалобами обращаться напрямую к пользователю, разместившему торрент файл.

Вверх