Loading...
Error

В Осаде 2: Тёмная Территория / Захват 2: Территория Тьмы / Under Siege 2: Dark Territory (Эндрю Дэвис / Andrew Davis) [1995, США, боевик, триллер, HDRip] MVO (РТР) + MVO (НТВ) + MVO (ТВ-Центр) + AVO (Кашкин)

Статистика раздачи
Размер:  1,68 GB   |    Зарегистрирован:  2 года 2 месяца   |    Скачан:  4 раза

Полного источника не было: 9 дней

Сидов:  0  |  0 KB/s  ]   Личеров:  0  |  0 KB/s  ]

* - сиды/пиры с внешних источников

   
 
Автор Сообщение

uzi2009 Пол:Муж

22-Сен-2014 09:52

В Осаде 2: Тёмная Территория / Захват 2: Территория Тьмы / Нико 7 / Under Siege 2: Dark Territory

Страна: США
Жанр: боевик, триллер
Год выпуска: 1995
Продолжительность: 01:39:38

Перевод: Профессиональный (многоголосый закадровый) РТР
Перевод 2: Профессиональный (многоголосый закадровый) НТВ
Перевод 3: Профессиональный (многоголосый закадровый) ТВ-Центр
Перевод 4: Авторский (одноголосый закадровый) Александр Кашкин
Cубтитры: нет
Режиссер: Эндрю Дэвис / Andrew Davis

В ролях: Стивен Сигал, Эрик Богосян, Эверет МакГилл, Кэтрин Хайгл, Моррис Честнат, Питер Грин, Патрик Килпэтрик, Скотт Сауэрс, Афифи Алауи, Энди Романо

Описание: Террористы захватывают поезд для того, чтобы развернуть на нем передвижной пункт управления засекреченным военным спутником США, на котором установлено оружие огромной разрушительной силы, и грозят взрывом на Восточном побережье Америки. Случайно оказавшийся среди пассажиров морской пехотинец Кейси Рэйбек не стерпел издевательств преступников…



Доп. информация:

Переводы РТР и Кашкин впервые в сети. В переводе РТР до 00:03:26 идет звук от НТВ

Качество видео: HDRip (Исходник видео из раздачи на Кинозале)
Формат видео: AVI

Видео: XviD, 720x400 (16:9), 23.976 fps, 1636 kbps avg
Аудио:
Русский (РТР) AC3, 48.0 khz, 2 ch, 192 kbps (VHSRip by серый75)
Русский (REN-TV/НТВ/ТНТ/ТВ3) AC3, 48.0 khz, 2 ch, 192 kbps (IPTVRip by JUSTKANT & mixaiil77)
Русский (ТВ-Центр) AC3, 48.0 khz, 2 ch, 192 kbps (VHSRip by bora86bora)
Русский (Кашкин) AC3, 48.0 khz, 2 ch, 192 kbps (VHSRip by NeoGuyver)
Общее
Полное имя : E:\Альберт\Downloads\В Осаде 2\В Осаде 2.avi
Формат : AVI
Формат/Информация : Audio Video Interleave
Размер файла : 1,42 Гбайт
Продолжительность : 1 ч. 39 м.
Общий поток : 2034 Кбит/сек
Программа кодирования : VirtualDubMod 1.5.10.2 (build 2540/release)
Библиотека кодирования : VirtualDubMod build 2540/release

Видео
Идентификатор : 0
Формат : MPEG-4 Visual
Профиль формата : Advanced Simple@L5
Параметр BVOP формата : 1
Параметр QPel формата : Нет
Параметр GMC формата : Без точки перехода
Параметр матрицы формата : Default (MPEG)
Идентификатор кодека : XVID
Идентификатор кодека/Подсказка : XviD
Продолжительность : 1 ч. 39 м.
Битрейт : 1636 Кбит/сек
Ширина : 720 пикселей
Высота : 400 пикселей
Соотношение сторон : 16:9
Частота кадров : 23,976 кадра/сек
Цветовое пространство : YUV
Субдискретизация насыщенности : 4:2:0
Битовая глубина : 8 бит
Тип развёртки : Прогрессивная
Метод сжатия : С потерями
Бит/(Пиксели*Кадры) : 0.237
Размер потока : 1,14 Гбайт (80%)
Библиотека кодирования : XviD 1.2.1 (UTC 2008-12-04)

Аудио #1
Идентификатор : 1
Формат : AC-3
Формат/Информация : Audio Coding 3
Расширение режима : CM (complete main)
Параметр Endianness формата : Big
Идентификатор кодека : 2000
Продолжительность : 1 ч. 39 м.
Вид битрейта : Постоянный
Битрейт : 192 Кбит/сек
Каналы : 2 канала
Расположение каналов : Front: L R
Частота : 48,0 КГц
Битовая глубина : 16 бит
Метод сжатия : С потерями
Размер потока : 137 Мбайт (9%)
Выравнивание : Разделение по промежуткам
Продолжительность промежутка : 42 мс. (1,00 видеокадр)
Время предзагрузки промежутка : 500 мс.

Аудио #2
Идентификатор : 2
Формат : AC-3
Формат/Информация : Audio Coding 3
Расширение режима : CM (complete main)
Параметр Endianness формата : Big
Идентификатор кодека : 2000
Продолжительность : 1 ч. 39 м.
Вид битрейта : Постоянный
Битрейт : 192 Кбит/сек
Каналы : 2 канала
Расположение каналов : Front: L R
Частота : 48,0 КГц
Битовая глубина : 16 бит
Метод сжатия : С потерями
Размер потока : 137 Мбайт (9%)
Выравнивание : Разделение по промежуткам
Продолжительность промежутка : 42 мс. (1,00 видеокадр)
Время предзагрузки промежутка : 500 мс.
pic pic pic

Этот торрент недоступен для скачивания без регистрации, однако доступен по публичной magnet-ссылке (источники с публичных трекеров). Перед использованием ссылки прочтите, пожалуйста Пользовательское соглашение, а также как можно дольше оставайтесь на раздаче! Для того, чтобы скачать сам торрент-файл (который видит больше источников), а также для того, чтобы поблагодарить релизера, вам необходимо зарегистрироваться. Если регистрироваться лень - вы можете также попробовать скачать релиз по нашим партнерским ссылкам ниже.

[underverse.su].t44074.torrent
Трекер: Зарегистрирован   [ 22.09.2014 09:52 ]  

Статус: проверено (by матроскин at 22.09.2014 10:10)
Поблагодарили: пока никто не поблагодарил...
Тип торрента: публичный - доступные источники с открытых трекеров: 
Размер: 1,68 GB (занимает 0,38 DVDR, для записи нужно 1 болванка DVDR/RW)
 
 

Яндекс.Метрика powered by Sphinx


В Н И М А Н И Е
Сайт не распространяет и не хранит электронные версии произведений, а лишь бесплатно и без коммерческой выгоды (не требуя взамен платы,
SMS и т.д.) предоставляет доступ к создаваемому пользователями каталогу ссылок на торрент-файлы, которые содержат только списки хеш-сумм.
Убедительная просьба с жалобами обращаться напрямую к пользователю, разместившему торрент файл.

Вверх