Loading...
Error

Красная вдова (1-8 серии из 8) (Игорь Штернберг, Алексей Чистиков) [2014 г., драма, криминал, SatRip]

Статистика раздачи
Размер:  4,16 GB   |    Зарегистрирован:  2 года 2 месяца   |    Скачан:  34 раза

Полного источника не было: 1 месяц 9 дней

Сидов:  0  |  0 KB/s  ]   Личеров:  0  |  0 KB/s  ]

* - сиды/пиры с внешних источников

   
 
Автор Сообщение

nemos Пол:Муж

19-Сен-2014 16:27

Красная вдова


Год выпуска: 2014
Жанр: драма, криминал
Страна: Россия
Режиссер: Игорь Штернберг, Алексей Чистиков
В ролях: Виктория Толстоганова, Евгений Сидихин, Владимир Юматов, Степан Коршунов, Эдуард Чекмазов, Елена Ручкина, Игорь Штернберг, Карина Зверева, Максим Ковалевский, Эрик Гришин
Сюжет фильма:
Остросюжетная криминальная сага о женщине, вынужденной пойти на всё ради счастья и благополучия своей семьи. Главная героиня сериала Полина — домохозяйка, чье счастье разрушается в один миг: преступники на глазах сына убивают ее мужа, а брат попадает в тюрьму. Выясняется, что оба участвовали в контрабанде наркотиков и перешли дорогу опасному человеку. На женщину сваливаются проблемы семьи, шантаж со стороны кредиторов, а также бизнес супруга, оказавшийся незаконным. Героине ничего не остается, кроме как найти в себе силы и возглавить преступный бизнес, параллельно разбираясь в том, кто и за что убил ее мужа.


Качество видео: SatRip

Продолжительность: 00:47:40 серия
Формат: AVI
Видео: XviD, 720x400, 1500 kbps
Аудио: русский, MP3 2.0, 128 kbps

Код:

D:\Фильмы Раздача-1\Vdova.SATRip\Vdova.01.SATRip.avi
   General
      Complete name : D:\Фильмы Раздача-1\Vdova.SATRip\Vdova.01.SATRip.avi
      Format : AVI
      Format/Info : Audio Video Interleave
      File size : 558 MiB
      Duration : 47mn 40s
      Overall bit rate : 1 638 Kbps
      Writing application : VirtualDubMod 1.5.10.3 | www.virtualdub-fr.org || (build 2550/release)
      Writing library : VirtualDubMod build 2550/release
   Video #0
      ID : 0
      Format : MPEG-4 Visual
      Format profile : Advanced Simple@L5
      Format settings, BVOP : 2
      Format settings, QPel : No
      Format settings, GMC : No warppoints
      Format settings, Matrix : Default (H.263)
      Codec ID : XVID
      Codec ID/Hint : XviD
      Duration : 47mn 40s
      Bit rate : 1 500 Kbps
      Width : 720 pixels
      Height : 400 pixels
      Display aspect ratio : 16:9
      Frame rate : 25.000 fps
      Color space : YUV
      Chroma subsampling : 4:2:0
      Bit depth : 8 bits
      Scan type : Progressive
      Compression mode : Lossy
      Bits/(Pixel*Frame) : 0.208
      Stream size : 511 MiB (92%)
      Writing library : XviD 73
   Audio #1
      ID : 1
      Format : MPEG Audio
      Format version : Version 1
      Format profile : Layer 3
      Mode : Joint stereo
      Mode extension : MS Stereo
      Codec ID : 55
      Codec ID/Hint : MP3
      Duration : 47mn 40s
      Bit rate mode : Constant
      Bit rate : 128 Kbps
      Channel(s) : 2 channels
      Sampling rate : 48.0 KHz
      Compression mode : Lossy
      Stream size : 43.7 MiB (8%)
      Alignment : Aligned on interleaves
      Interleave, duration : 40 ms (1.00 video frame)
      Interleave, preload duration : 504 ms
      Writing library : LAME3.99r
      Encoding settings : -m j -V 4 -q 9 -lowpass 17 -b 128
picpicpicpicpicpicpicpicpicpicpicpicpicpicpicpic
Для увеличения картинки щелкните мышкой по превью

Этот торрент недоступен для скачивания без регистрации, однако доступен по публичной magnet-ссылке (источники с публичных трекеров). Перед использованием ссылки прочтите, пожалуйста Пользовательское соглашение, а также как можно дольше оставайтесь на раздаче! Для того, чтобы скачать сам торрент-файл (который видит больше источников), а также для того, чтобы поблагодарить релизера, вам необходимо зарегистрироваться. Если регистрироваться лень - вы можете также попробовать скачать релиз по нашим партнерским ссылкам ниже.

[underverse.su].t44590.torrent
Трекер: Зарегистрирован   [ 02.10.2014 06:46 ]  

Статус: проверено (by nemos at 02.10.2014 06:47)
Поблагодарили: 1 человек
Тип торрента: публичный - доступные источники с открытых трекеров: 
Размер: 4,16 GB (занимает 0,95 DVDR, для записи нужно 1 болванка DVDR/RW)
 
 
Похожие темы
Форум Тема Автор Торрент Отв. Посл. сооб.
Зарубежные сериалы Красная вдова / Red Widow / Сезон 1 / Серии 1-8 (8) (Билл Джирхарт, Терри МакДонаф, Марк Пеллингтон) [2013 г., Криминал, драма, WEBDLRip] MVO + Original Чертёнок
0 | 0

0 | 473

12

21.06.2013 14:42



Последний раз редактировалось: nemos (02.10.2014 06:46), всего редактировалось 1 раз

nemos Пол:Муж

25-Сен-2014 14:51

Торр файл обновлён. 8 серий.

Яндекс.Метрика powered by Sphinx


В Н И М А Н И Е
Сайт не распространяет и не хранит электронные версии произведений, а лишь бесплатно и без коммерческой выгоды (не требуя взамен платы,
SMS и т.д.) предоставляет доступ к создаваемому пользователями каталогу ссылок на торрент-файлы, которые содержат только списки хеш-сумм.
Убедительная просьба с жалобами обращаться напрямую к пользователю, разместившему торрент файл.

Вверх