Loading...
Error

В Осаде / Захват / Under Siege (Эндрю Дэвис / Andrew Davis) [1992, США, Франция, боевик, триллер, BDRip] MVO (РТР) + MVO (РЕН-ТВ) + MVO (ТВ-Центр)

Статистика раздачи
Размер:  1,73 GB   |    Зарегистрирован:  2 года 2 месяца   |    Скачан:  7 раз

Полного источника не было: 2 дня 18 часов

Сидов:  0  |  0 KB/s  ]   Личеров:  0  |  0 KB/s  ]

* - сиды/пиры с внешних источников

   
 
Автор Сообщение

uzi2009 Пол:Муж

19-Сен-2014 12:14

В Осаде / Захват / Under Siege

Страна: США, Франция
Жанр: боевик, триллер
Год выпуска: 1992
Продолжительность: 01:42:31

Перевод: Профессиональный (многоголосый закадровый) РТР
Перевод 2: Профессиональный (многоголосый закадровый) РЕН-ТВ
Перевод 3: Профессиональный (многоголосый закадровый) ТВ-Центр
Cубтитры: нет
Режиссер: Эндрю Дэвис / Andrew Davis

В ролях: Стивен Сигал, Томми Ли Джонс, Гэри Бьюзи, Эрика Элениак, Колм Мини, Патрик О’Нил, Энди Романо, Ник Манкузо, Дэмиан Чапа, Трой Эванс

Описание: Террористы — бывшая элита коммандос — под видом сопровождения рок-группы, которая должна выступить перед военными моряками, пробираются на корабль с ядерным оружием. Расправившись с основной частью команды, они пытаются шантажировать правительство США. Все для захватчиков судна складывалось благополучно до тех пор, пока они не решили изолировать повара — бывшего морского пехотинца. Кок не мог стерпеть такого издевательства: он практически в одиночку хоронит планы подонков один за другим.

Доп. информация:

Перевод РТР впервые в сети, имеет вставки с перевода НТВ-ТНТ в пропущенных интервалах.



Сэмпл: http://www.sendspace.com/file/t9m048

Качество видео: BDRip
Формат видео: AVI

Видео: XviD, 704x400 (16:9), 23.976 fps, 1834 kbps avg
Аудио:
Русский (РТР) AC3, 48.0 khz, 2.0 ch, 192 kbps (VHSRip by серый75)
Русский (РЕН-ТВ/ТВ3) AC3, 48.0 khz, 2.0 ch, 192 kbps (IPTVRip by mixaiil77 & JUSTKANT)
Русский (ТВ-Центр) AC3, 48.0 khz, 2.0 ch, 192 kbps (VHSRip by bora86bora)
Общее
Полное имя : E:\Альберт\Downloads\В Осаде\В Осаде.avi
Формат : AVI
Формат/Информация : Audio Video Interleave
Размер файла : 1,46 Гбайт
Продолжительность : 1 ч. 42 м.
Общий поток : 2035 Кбит/сек
Название фильма : В осаде / Under Siege (1992)
Режиссёр : $in0bi (BDRemux/HDTracker)
Программа кодирования : VirtualDubMod 1.5.10.2 (build 2540/release)
Библиотека кодирования : VirtualDubMod build 2540/release

Видео
Идентификатор : 0
Формат : MPEG-4 Visual
Профиль формата : Advanced Simple@L5
Параметр BVOP формата : 2
Параметр QPel формата : Нет
Параметр GMC формата : Без точки перехода
Параметр матрицы формата : Выборочная
Идентификатор кодека : XVID
Идентификатор кодека/Подсказка : XviD
Продолжительность : 1 ч. 42 м.
Битрейт : 1834 Кбит/сек
Ширина : 704 пикселя
Высота : 400 пикселей
Соотношение сторон : 16:9
Частота кадров : 23,976 кадра/сек
Цветовое пространство : YUV
Субдискретизация насыщенности : 4:2:0
Битовая глубина : 8 бит
Тип развёртки : Прогрессивная
Метод сжатия : С потерями
Бит/(Пиксели*Кадры) : 0.272
Размер потока : 1,31 Гбайт (90%)
Библиотека кодирования : XviD 65

Аудио
Идентификатор : 1
Формат : AC-3
Формат/Информация : Audio Coding 3
Расширение режима : CM (complete main)
Параметр Endianness формата : Big
Идентификатор кодека : 2000
Продолжительность : 1 ч. 42 м.
Вид битрейта : Постоянный
Битрейт : 192 Кбит/сек
Каналы : 2 канала
Расположение каналов : Front: L R
Частота : 48,0 КГц
Битовая глубина : 16 бит
Метод сжатия : С потерями
Размер потока : 141 Мбайт (9%)
Выравнивание : Разделение по промежуткам
Продолжительность промежутка : 42 мс. (1,00 видеокадр)
Время предзагрузки промежутка : 500 мс.
pic pic pic pic pic

Этот торрент недоступен для скачивания без регистрации, однако доступен по публичной magnet-ссылке (источники с публичных трекеров). Перед использованием ссылки прочтите, пожалуйста Пользовательское соглашение, а также как можно дольше оставайтесь на раздаче! Для того, чтобы скачать сам торрент-файл (который видит больше источников), а также для того, чтобы поблагодарить релизера, вам необходимо зарегистрироваться. Если регистрироваться лень - вы можете также попробовать скачать релиз по нашим партнерским ссылкам ниже.

[underverse.su].t44007.torrent
Трекер: Зарегистрирован   [ 19.09.2014 12:14 ]  

Статус: проверено (by Паукан at 01.10.2014 13:23)
Поблагодарили: пока никто не поблагодарил...
Тип торрента: публичный - доступные источники с открытых трекеров: 
Размер: 1,73 GB (занимает 0,4 DVDR, для записи нужно 1 болванка DVDR/RW)
 
 
Похожие темы
Форум Тема Автор Торрент Отв. Посл. сооб.
Зарубежное кино [DVDRip, Low-Res HDRip, и т.д.] В осаде / Suddenly (Уве Болл) [2013 г., триллер, HDRip] Паукан
7 | 0

0 | 2063

26

16.12.2013 08:02

Зарубежное кино [DVDRip, Low-Res HDRip, и т.д.] В осаде / Suddenly (Уве Болл / Uwe Boll) [2013 г., триллер, BDRip-AVC] MVO + Original + Sub (Eng) 90ytr90
2 | 0

0 | 2140

29

17.12.2013 05:09

Зарубежное кино [DVDRip, Low-Res HDRip, и т.д.] В осаде / Захват / Under Siege (Эндрю Дэвис / Andrew Davis) [1992, США, боевик, BDRip-AVC] MVO(R5) + DVO + AVO (Гаврилов) + MVO(НТВ) + Dub + Sub (Rus, Eng) + Original eng uzi2009
7 | 0

0 | 615

7

19.09.2014 12:01


Яндекс.Метрика powered by Sphinx


В Н И М А Н И Е
Сайт не распространяет и не хранит электронные версии произведений, а лишь бесплатно и без коммерческой выгоды (не требуя взамен платы,
SMS и т.д.) предоставляет доступ к создаваемому пользователями каталогу ссылок на торрент-файлы, которые содержат только списки хеш-сумм.
Убедительная просьба с жалобами обращаться напрямую к пользователю, разместившему торрент файл.

Вверх