Loading...
Error

Отмеченный смертью / Помеченный смертью / Нико 3 / Marked For Death (Дуайт Х. Литтл / Dwight H. Little) [1990, США, боевик, триллер, драма, криминал, HDRip] DVO (НТВ) + Dub (Хлопушка) + DVO (Премьер)

Статистика раздачи
Размер:  1,58 GB   |    Зарегистрирован:  2 года 2 месяца   |    Скачан:  5 раз

Полного источника не было: 8 дней

Сидов:  0  |  0 KB/s  ]   Личеров:  0  |  0 KB/s  ]

* - сиды/пиры с внешних источников

   
 
Автор Сообщение

uzi2009 Пол:Муж

17-Сен-2014 18:13

Отмеченный смертью / Помеченный смертью / Нико 3 / Marked For Death

Страна: США
Жанр: боевик, триллер, драма, криминал
Год выпуска: 1990
Продолжительность: 01:33:18

Перевод: Профессиональный (двухголосый закадровый) НТВ
Перевод 2: Профессиональный (дублированный) Хлопушка
Перевод 3: Профессиональный (двухголосый закадровый) Премьер Видео (отдельно)

Cубтитры: нет
Оригинальная аудиодорожка: нет

Режиссер: Дуайт Х. Литтл / Dwight H. Little

В ролях: Стивен Сигал, Бейзил Уоллес, Кит Дэвид, Том Райт, Джоанна Пакула, Элизабет Грэйсен, Бетти Форд, Даниэль Харрис, Эл Израэл, Арлен Дин Снайдер

Описание: После смерти напарника Джон Хэтчер, специальный агент отдела по борьбе с наркотиками, решает подать в отставку. Переехав к своей сестре в Чикаго, Хэтчер намеревается вести тихое и размеренное существование. Но этому не суждено было сбыться. На пути у бывшего полицейского встает ямайская наркомафия во главе со своим жутким главарем по прозвищу Зомби. Хэтчер оказывается втянутым в кровавые разборки.



За дорожку НТВ спасибо SadiSemiramidi, работа со звуком alex7691
За дорожку Премьер Видео спасибо alenavova, синхронизация akchurin.a2011

Качество видео: HDRip
Формат видео: AVI

Видео: 720x304 (2.37:1), 23.976 fps, XviD build 50 ~1768 kbps avg, 0.34 bit/pixel
Аудио: 48 kHz, AC3 Dolby Digital, 2/0 (L,R) ch, ~224 kbps
Аудио 2: 48 kHz, AC3 Dolby Digital, 2/0 (L,R) ch, ~224 kbps
Аудио 3: 48 kHz, AC3 Dolby Digital, 2/0 (L,R) ch, ~192 kbps
General
Complete name : C:\Users\Александр\Desktop\Кино\Помеченный смертью.avi
Format : AVI
Format/Info : Audio Video Interleave
File size : 1.45 GiB
Duration : 1h 33mn
Overall bit rate : 2 231 Kbps
Movie name : Otmechenny'y.Smert'yu.1990.RUS.BDRip.XviD.AC3.-HQCLUB
Director : kingsize87
Writing application : VirtualDubMod 1.5.10.2 (build 2540/release)
Writing library : VirtualDubMod build 2540/release
Comment : 27.05.2010

Video
ID : 0
Format : MPEG-4 Visual
Format profile : Advanced Simple@L5
Format settings, BVOP : 1
Format settings, QPel : No
Format settings, GMC : No warppoints
Format settings, Matrix : Custom
Codec ID : XVID
Codec ID/Hint : XviD
Duration : 1h 33mn
Bit rate : 1 769 Kbps
Width : 720 pixels
Height : 304 pixels
Display aspect ratio : 2.35:1
Frame rate : 23.976 fps
Color space : YUV
Chroma subsampling : 4:2:0
Bit depth : 8 bits
Scan type : Progressive
Compression mode : Lossy
Bits/(Pixel*Frame) : 0.337
Stream size : 1.15 GiB (79%)
Writing library : XviD 1.2.1 (UTC 2008-12-04)

Audio #1
ID : 1
Format : AC-3
Format/Info : Audio Coding 3
Mode extension : CM (complete main)
Format settings, Endianness : Big
Codec ID : 2000
Duration : 1h 33mn
Bit rate mode : Constant
Bit rate : 224 Kbps
Channel(s) : 2 channels
Channel positions : Front: L R
Sampling rate : 48.0 KHz
Bit depth : 16 bits
Compression mode : Lossy
Stream size : 150 MiB (10%)
Alignment : Split accross interleaves
Interleave, duration : 42 ms (1.00 video frame)
Interleave, preload duration : 500 ms

Audio #2
ID : 2
Format : AC-3
Format/Info : Audio Coding 3
Mode extension : CM (complete main)
Format settings, Endianness : Big
Codec ID : 2000
Duration : 1h 33mn
Bit rate mode : Constant
Bit rate : 224 Kbps
Channel(s) : 2 channels
Channel positions : Front: L R
Sampling rate : 48.0 KHz
Bit depth : 16 bits
Compression mode : Lossy
Stream size : 150 MiB (10%)
Alignment : Split accross interleaves
Interleave, duration : 42 ms (1.00 video frame)
Interleave, preload duration : 500 ms
pic pic pic pic pic

Этот торрент недоступен для скачивания без регистрации, однако доступен по публичной magnet-ссылке (источники с публичных трекеров). Перед использованием ссылки прочтите, пожалуйста Пользовательское соглашение, а также как можно дольше оставайтесь на раздаче! Для того, чтобы скачать сам торрент-файл (который видит больше источников), а также для того, чтобы поблагодарить релизера, вам необходимо зарегистрироваться. Если регистрироваться лень - вы можете также попробовать скачать релиз по нашим партнерским ссылкам ниже.

[underverse.su].t43956.torrent
Трекер: Зарегистрирован   [ 17.09.2014 18:13 ]  

Статус: проверено (by Паукан at 18.09.2014 06:56)
Поблагодарили: пока никто не поблагодарил...
Тип торрента: публичный - доступные источники с открытых трекеров: 
Размер: 1,58 GB (занимает 0,36 DVDR, для записи нужно 1 болванка DVDR/RW)
 
 
Похожие темы
Форум Тема Автор Торрент Отв. Посл. сооб.
Зарубежное кино [DVDRip, Low-Res HDRip, и т.д.] Отмеченный смертью / Помеченный смертью / Нико-3 / Marked for Death (Дуайт Х. Литтл) [1990 г., боевик, триллер, драма, криминал, BDRip-AVC] Dub + DVO + VO Чертёнок
2 | 1

0 | 603

1

10.08.2013 23:20

Зарубежное кино [DVDRip, Low-Res HDRip, и т.д.] Отмеченный смертью / Помеченный смертью / Нико-3 / Marked for Death (Дуайт Литтл / Dwight H. Little) [1990, США, Боевик, BDRip-AVC] MVO R5 (ОРТ) + 3xAVO (Михалёв, Прямостанов, Кузнецов) + Sub (Rus) +... uzi2009
5 | 0

0 | 644

3

17.09.2014 18:23


Яндекс.Метрика powered by Sphinx


В Н И М А Н И Е
Сайт не распространяет и не хранит электронные версии произведений, а лишь бесплатно и без коммерческой выгоды (не требуя взамен платы,
SMS и т.д.) предоставляет доступ к создаваемому пользователями каталогу ссылок на торрент-файлы, которые содержат только списки хеш-сумм.
Убедительная просьба с жалобами обращаться напрямую к пользователю, разместившему торрент файл.

Вверх