Loading...
Error

Обнимая небо (1-12 серия из 12) (Милена Фадеева) [2014 г., Драма, SatRip]

Статистика раздачи
Размер:  6,75 GB   |    Зарегистрирован:  2 года 2 месяца   |    Скачан:  16 раз

Полного источника не было: 5 месяцев 10 дней

Сидов:  0  |  0 KB/s  ]   Личеров:  0  |  0 KB/s  ]

* - сиды/пиры с внешних источников

   
 
Автор Сообщение

nemos Пол:Муж

16-Сен-2014 08:37

Обнимая небо


Год выпуска: 2014
Жанр: Драма
Страна: Россия
Режиссер: Милена Фадеева
В ролях: Александр Петров (IX), Любовь Новикова (II), Даниил Страхов, Виктория Толстоганова, Анатолий Белый, Екатерина Редникова, Захар Кабанов, Наталья Рогожкина, Светлана Колпакова, Олег Алмазов, Евгений Никитин, Алексей Демидов, Екатерина Никитина, Ингрид Олеринская, Андрей Руденский, Владислав Ветров, Анна Уколова, Галина Анисимова (II), Ольга Лапшина, Алексей Ошурков, Азамат Нигманов, Сергей Романович, Юрий Кузнецов, Андрей Казаков, Алексей Фатеев, Ольга Литвинова, Вадим Колганов, Владимир Гориславец, Ольга Машная, Пётр Баранчеев, Виктор Хориняк, Александр Голубков, Савва Гусев, Максим Сапрыкин (II), Анастасия Шумилкина, Илья Третьяков, Полина Нечитайло, Егор Долгополов, Олеся Фаттахова, Екатерина Копанова, Ирина Фролова, Николай Цонку, Тихон Бузников, Владлен Косьянов, Артём Федотов, Елена Папанова, Александр Вдовин
Сюжет фильма:
Это история любви длиною в жизнь. Действие фильма начинается в 1985 году в военном гарнизоне, в котором дислоцируется полк истребительной авиации. Двух десятиклассников - дочь заместителя командира полка Женю Луговую и сына официантки лётной столовой Ваньку Котова - накрывает чувство первой взаимной любви. Жесткие драматические события разводят героев, их жизненные пути расходятся, и они теряют друг друга на долгие-долгие годы. Ванька Котов становится летчиком-испытателем, Женя Луговая - военным хирургом. Однажды судьба вновь сводит героев...


Качество видео: SatRip

Продолжительность: 00:51:55 серия
Формат: AVI
Видео: XviD, 720x368, 1397 kbps
Аудио: русский, MP3 2.0, 192 kbps

Код:

D:\Фильмы Раздача-1\Обнимая небо (2014)\Обнимая небо.(01.seriya).2014.XviD.SATRip.by.simka.avi
   General
      Complete name : D:\Фильмы Раздача-1\Обнимая небо (2014)\Обнимая небо.(01.seriya).2014.XviD.SATRip.by.simka.avi
      Format : AVI
      Format/Info : Audio Video Interleave
      File size : 594 MiB
      Duration : 51mn 55s
      Overall bit rate : 1 599 Kbps
      Writing application : VirtualDubModRus 1.5.10.2 (build 2542/release)
      Writing library : VirtualDubMod build 2542/release
   Video #0
      ID : 0
      Format : MPEG-4 Visual
      Format profile : Advanced Simple@L5
      Format settings, BVOP : 1
      Format settings, QPel : No
      Format settings, GMC : No warppoints
      Format settings, Matrix : Default (MPEG)
      Codec ID : XVID
      Codec ID/Hint : XviD
      Duration : 51mn 55s
      Bit rate : 1 397 Kbps
      Width : 720 pixels
      Height : 368 pixels
      Display aspect ratio : 1.957
      Frame rate : 25.000 fps
      Color space : YUV
      Chroma subsampling : 4:2:0
      Bit depth : 8 bits
      Scan type : Progressive
      Compression mode : Lossy
      Bits/(Pixel*Frame) : 0.211
      Stream size : 519 MiB (87%)
      Writing library : XviD 1.2.1 (UTC 2008-12-04)
   Audio #1
      ID : 1
      Format : MPEG Audio
      Format version : Version 1
      Format profile : Layer 3
      Mode : Joint stereo
      Codec ID : 55
      Codec ID/Hint : MP3
      Duration : 51mn 55s
      Bit rate mode : Constant
      Bit rate : 192 Kbps
      Channel(s) : 2 channelshttp://underverse.su/release.php?what=video2#top
      Sampling rate : 48.0 KHz
      Compression mode : Lossy
      Stream size : 71.3 MiB (12%)
      Alignment : Aligned on interleaves
      Interleave, duration : 40 ms (1.00 video frame)
      Interleave, preload duration : 504 ms
      Writing library : LAME3.99r
      Encoding settings : -m j -V 4 -q 2 -lowpass 18.6 -b 192
picpicpicpicpicpicpicpicpicpic
Для увеличения картинки щелкните мышкой по превью

Этот торрент недоступен для скачивания без регистрации, однако доступен по публичной magnet-ссылке (источники с публичных трекеров). Перед использованием ссылки прочтите, пожалуйста Пользовательское соглашение, а также как можно дольше оставайтесь на раздаче! Для того, чтобы скачать сам торрент-файл (который видит больше источников), а также для того, чтобы поблагодарить релизера, вам необходимо зарегистрироваться. Если регистрироваться лень - вы можете также попробовать скачать релиз по нашим партнерским ссылкам ниже.

[underverse.su].t44017.torrent
Трекер: Зарегистрирован   [ 19.09.2014 15:49 ]  

Статус: проверено (by nemos at 19.09.2014 15:49)
Поблагодарили: 1 человек
Тип торрента: публичный - доступные источники с открытых трекеров: 
Размер: 6,75 GB (занимает 1,54 DVDR, для записи нужно 2 болванки DVDR/RW)
 
 
Похожие темы
Форум Тема Автор Торрент Отв. Посл. сооб.
xUSSR сериалы Обнимая небо / Серии: 1-12 из 12 (Милена Фадеева) [2013 г., Драма, HDTVRip] Ведьмочка
6 | 0

0 | 334

5

30.09.2014 13:51

xUSSR сериалы Обнимая небо / Серии: 1-12 из 12 (Милена Фадеева) [2013 г., Драма, HDTVRip-AVC] Ведьмочка
1 | 1

0 | 506

5

30.09.2014 13:56

xUSSR сериалы [BD / Remux / BDRip / WEB-DL / HDTV 1080/720р] Обнимая небо / Серии: 1-12 из 12 (Милена Фадеева) [2013 г., Драма, HDTVRip 720p] Ведьмочка
2 | 1

0 | 678

3

26.09.2014 08:47

xUSSR сериалы [BD / Remux / BDRip / WEB-DL / HDTV 1080/720р] Обнимая небо / Серии: 1-12 из 12 (Милена Фадеева) [2013 г., Драма, HDTV 1080p] Ведьмочка
3 | 0

0 | 545

3

30.09.2014 13:46



Последний раз редактировалось: nemos (06.11.2014 09:07), всего редактировалось 4 раз(а)

nemos Пол:Муж

17-Сен-2014 07:25

Торр файл обновлён ! 12 серий.

Яндекс.Метрика powered by Sphinx


В Н И М А Н И Е
Сайт не распространяет и не хранит электронные версии произведений, а лишь бесплатно и без коммерческой выгоды (не требуя взамен платы,
SMS и т.д.) предоставляет доступ к создаваемому пользователями каталогу ссылок на торрент-файлы, которые содержат только списки хеш-сумм.
Убедительная просьба с жалобами обращаться напрямую к пользователю, разместившему торрент файл.

Вверх