Loading...
Error

Ровер / The Rover (Дэвид Мишо) [2014 г., драма, криминал, BDRip-AVC] DVO

Статистика раздачи
Размер:  2,1 GB   |    Зарегистрирован:  2 года 2 месяца   |    Скачан:  68 раз

Полного источника не было: 1 год 10 месяцев

Сидов:  0  |  0 KB/s  ]   Личеров:  0  |  0 KB/s  ]

* - сиды/пиры с внешних источников

   
 
Автор Сообщение

Паукан Пол:Муж

12-Сен-2014 12:11

Ровер / The Rover


Ровер / The Rover (2014) BDRip-AVC | iPad | L2,L
«Бойся человека, которому нечего терять»


Название: Ровер
Оригинальное название: The Rover
Год выпуска: 2014
Жанр: драма, криминал
Режиссер: Дэвид Мишо
Актеры: Гай Пирс, Чан Кьень, Роберт Паттинсон, Тек Конг Лим, Скут МакНэйри, Таванда Маниймо, Дэвид Филд, Скотт Перри, Ричард Грин, Бен Армер

Описание: Главный герой преследует по дикой австралийской природе банду, угнавшую его автомобиль, и оказывается в ловушке. Современный вестерн в постапокалиптическом сеттинге, где есть преступление, и есть наказание, которое главный герой желает обрушить на головы своих обидчиков. И высшая философия, четко прописанная мотивация… какое это имеет значение в месте, где пистолет — это Бог и единственное, что он может даровать — это смерть.



Страна: США, Австралия
Студия: Porchlight Films, Lava Bear Films, Blue-Tongue Films

Продолжительность: 01:42:53
Перевод: Любительский двухголосый закадровый (Студия "Paradox"), любительский одноголосый закадровый (Алексей Матвеев - Doctor Joker)

Кодек: H.264
Качество: BDRip-AVC [576p]
Видео: 1024x428 (2.40:1) at 23.976 fps, AVC at 2400 kbps
Аудио:
1: АAС 2.0 160 kbps - Русский любительский двухголосый закадровый (Студия "Paradox")
2: АAС 2.0 160 kbps - Русский любительский одноголосый закадровый (Алексей Матвеев - Doctor Joker)
2: АAС 2.0 160 kbps - Английский
Субтитры: Русские, Английские
Sort Name: The Rover
XID: Apple:vendor_id:2014-677780
Content ID: 887631380
Copyright: Porchlight Films, Lava Bear Films, Blue-Tongue Films
ScreenWriters: Дэвид Мишо, Джоэл Эдгертон
Producers: Дэвид Линд, Дэвид Мишо, Лиз Уоттс
Director: Дэвид Мишо
Cast: Robert Pattinson (Reynolds), Guy Pearce (Eric), Scoot McNairy (Henry), Nash Edgerton (Town Soldier), Anthony Hayes (Sgt. Rickofferson), Susan Prior (Dot), Gillian Jones (Grandma), Tawanda Manyimo (Caleb)
Rating: R
Long Deion: Действие развивается в недалеком будущем, главный герой преследует по дикой австралийской природе банду, угнавшую его автомобиль.
Deion: Действие развивается в недалеком будущем, главный герой преследует по дикой австралийской природе банду, угнавшую его автомобиль.
Release Date: 2014-06-13T07:00:00Z
Genre: Thriller
Artist: David Michod
Name: Ровер
Comments: «Бойся человека, которому нечего терять»
General
Complete name : C:CREATE264mod1outThe.Rover.2014.576p.L2L.NNM.m4v
Format : MPEG-4
Codec ID : M4V
File size : 2.10 GiB
Duration : 1h 42mn
Overall bit rate mode : Variable
Overall bit rate : 2 927 Kbps
Movie name : Ровер
Performer : David Michod
Genre : Thriller
ContentType : Short Film
Deion : Действие развивается в недалеком будущем, главный герой преследует по дикой австралийской природе банду, угнавшую его автомобиль.
Recorded date : UTC 2014-06-13 07:00:00
Encoded date : UTC 2014-09-11 16:51:38
Tagged date : UTC 2014-09-11 17:02:42
Copyright : Porchlight Films, Lava Bear Films, Blue-Tongue Films
Cover : Yes
Comment : «Бойся человека, которому нечего терять»
ContentRating : mpaa|R|400|

Title/Sort : The Rover
LongDeion : Действие развивается в недалеком будущем, главный герой преследует по дикой австралийской природе банду, угнавшую его автомобиль.
AppleStoreCatalogID : 887631380
Vendor : Apple:vendor_id:2014-677780

Video
ID : 1
Format : AVC
Format/Info : Advanced Video Codec
Format profile : High@L4.1
Format settings, CABAC : Yes
Format settings, ReFrames : 9 frames
Codec ID : avc1
Codec ID/Info : Advanced Video Coding
Duration : 1h 42mn
Bit rate : 2 425 Kbps
Maximum bit rate : 15.0 Mbps
Width : 1 024 pixels
Height : 428 pixels
Display aspect ratio : 2.40:1
Frame rate mode : Constant
Frame rate : 23.976 fps
Color space : YUV
Chroma subsampling : 4:2:0
Bit depth : 8 bits
Scan type : Progressive
Bits/(Pixel*Frame) : 0.231
Stream size : 1.74 GiB (83%)
Title : The.Rove.2014
Language : English
Encoded date : UTC 2014-09-11 16:51:38
Tagged date : UTC 2014-09-11 16:51:59

Audio #1
ID : 2
Format : AAC
Format/Info : Advanced Audio Codec
Format profile : LC
Codec ID : 40
Duration : 1h 42mn
Bit rate mode : Variable
Bit rate : 160 Kbps
Maximum bit rate : 198 Kbps
Channel(s) : 2 channels
Channel positions : Front: L R
Sampling rate : 48.0 KHz
Compression mode : Lossy
Stream size : 118 MiB (5%)
Title : AAC DVO [Paradox]
Language : Russian
Encoded date : UTC 2014-09-11 16:51:46
Tagged date : UTC 2014-09-11 16:51:59

Audio #2
ID : 3
Format : AAC
Format/Info : Advanced Audio Codec
Format profile : LC
Codec ID : 40
Duration : 1h 42mn
Bit rate mode : Variable
Bit rate : 161 Kbps
Maximum bit rate : 197 Kbps
Channel(s) : 2 channels
Channel positions : Front: L R
Sampling rate : 48.0 KHz
Compression mode : Lossy
Stream size : 118 MiB (5%)
Title : AAC AVO [Matveev _ Doctor Joker]
Language : Russian
Encoded date : UTC 2014-09-11 16:51:50
Tagged date : UTC 2014-09-11 16:51:59

Audio #3
ID : 4
Format : AAC
Format/Info : Advanced Audio Codec
Format profile : LC
Codec ID : 40
Duration : 1h 42mn
Bit rate mode : Variable
Bit rate : 160 Kbps
Maximum bit rate : 203 Kbps
Channel(s) : 2 channels
Channel positions : Front: L R
Sampling rate : 48.0 KHz
Compression mode : Lossy
Stream size : 118 MiB (5%)
Language : English
Encoded date : UTC 2014-09-11 16:51:54
Tagged date : UTC 2014-09-11 16:51:59

Text #1
ID : 5
Format : Timed Text
Muxing mode : sbtl
Codec ID : tx3g
Duration : 1h 31mn
Bit rate mode : Variable
Bit rate : 42 bps
Stream size : 28.0 KiB (0%)
Language : Russian
Encoded date : UTC 2014-09-11 16:51:59
Tagged date : UTC 2014-09-11 16:51:59

Text #2
ID : 6
Format : Timed Text
Muxing mode : sbtl
Codec ID : tx3g
Duration : 1h 31mn
Bit rate mode : Variable
Bit rate : 27 bps
Stream size : 18.0 KiB (0%)
Language : English
Encoded date : UTC 2014-09-11 16:51:59
Tagged date : UTC 2014-09-11 16:51:59

Menu
ID : 7
Codec ID : text
Duration : 1h 42mn
Encoded date : UTC 2014-09-11 16:52:29
Tagged date : UTC 2014-09-11 16:52:29
Bit rate mode : CBR
x264 [info]: frame I:843 Avg QP:14.96 size: 89193
x264 [info]: frame P:28662 Avg QP:18.23 size: 32076
x264 [info]: frame B:118499 Avg QP:20.71 size: 7397
x264 [info]: consecutive B-frames: 2.1% 1.7% 4.9% 9.5% 16.3% 41.8% 9.7% 3.7% 2.8% 1.1% 1.0% 1.4% 1.0% 1.8% 1.2%
x264 [info]: mb I I16..4: 21.7% 48.2% 30.1%
x264 [info]: mb P I16..4: 0.3% 3.5% 1.4% P16..4: 27.5% 35.2% 17.5% 6.3% 1.6% skip: 6.6%
x264 [info]: mb B I16..4: 0.0% 0.3% 0.1% B16..8: 36.4% 17.6% 2.4% direct: 5.6% skip:37.5% L0:40.9% L1:42.8% BI:16.3%
x264 [info]: 8x8 transform intra:61.6% inter:38.0%
x264 [info]: coded y,uvDC,uvAC intra: 96.6% 67.8% 43.8% inter: 21.5% 8.2% 3.5%
x264 [info]: i16 v,h,dc,p: 11% 11% 35% 44%
x264 [info]: i8 v,h,dc,ddl,ddr,vr,hd,vl,hu: 11% 12% 10% 9% 12% 11% 12% 11% 13%
x264 [info]: i4 v,h,dc,ddl,ddr,vr,hd,vl,hu: 13% 10% 7% 9% 14% 12% 13% 11% 12%
x264 [info]: i8c dc,h,v,p: 32% 34% 18% 16%
x264 [info]: Weighted P-Frames: Y:5.9% UV:3.8%
x264 [info]: ref P L0: 51.2% 8.9% 15.9% 7.2% 5.3% 4.2% 3.4% 1.9% 1.7% 0.2% 0.0%
x264 [info]: ref B L0: 77.6% 9.6% 5.5% 2.4% 1.8% 1.4% 1.1% 0.4%
x264 [info]: ref B L1: 92.3% 7.7%
x264 [info]: kb/s:2424.88
pic pic pic
Для увеличения картинки щелкните мышкой по превью

Этот торрент недоступен для скачивания без регистрации, однако доступен по публичной magnet-ссылке (источники с публичных трекеров). Перед использованием ссылки прочтите, пожалуйста Пользовательское соглашение, а также как можно дольше оставайтесь на раздаче! Для того, чтобы скачать сам торрент-файл (который видит больше источников), а также для того, чтобы поблагодарить релизера, вам необходимо зарегистрироваться. Если регистрироваться лень - вы можете также попробовать скачать релиз по нашим партнерским ссылкам ниже.

[underverse.su].t43816.torrent
Трекер: Зарегистрирован   [ 12.09.2014 12:11 ]  

Статус: проверено (by Паукан at 12.09.2014 12:11)
Поблагодарили: 1 человек
Тип торрента: публичный - доступные источники с открытых трекеров: 
Размер: 2,1 GB (занимает 0,48 DVDR, для записи нужно 1 болванка DVDR/RW)
 
 
Похожие темы
Форум Тема Автор Торрент Отв. Посл. сооб.
# Зарубежное кино [DVDRip, Low-Res HDRip, и т.д.] Ровер / The Rover (Дэвид Мишо) [2014 г., драма, криминал, BDRip-AVC] MVO 90ytr90
36 | 2

0 | 321

6

23.11.2014 16:02

Зарубежное кино [DVDRip, Low-Res HDRip, и т.д.] Ровер / The Rover (Дэвид Мишо) [2014 г., драма, криминал, BDRip-AVC] MVO + Original (Eng) + Sub (Rus, Eng) 90ytr90
4 | 0

0 | 247

2

24.11.2014 07:05

Зарубежное кино [DVDRip, Low-Res HDRip, и т.д.] Ровер / The Rover (Дэвид Мишо) [2014 г., драма, криминал, HDRip-AVC] MVO + Original (Eng) + Sub (Rus, Eng) 90ytr90
1 | 0

0 | 754

1

24.11.2014 07:38

Зарубежное кино [DVDRip, Low-Res HDRip, и т.д.] Ровер / The Rover (Дэвид Мишо) [2014 г., драма, криминал, HDRip] MVO 90ytr90
3 | 1

0 | 272

9

25.11.2014 10:11

# Зарубежное кино [HDDVDRip / BDRip / WEB-DL / HDTV 1080/720р] Ровер / The Rover (Дэвид Мишо) [2014 г., драма, криминал, BDRip 720p] MVO + AVO (Матвеев) + DVO (Paradox) + VO (R.A.I.M) + Original (Eng) + Sub (Rus, Eng) 90ytr90
2 | 0

0 | 303

4

23.11.2014 16:15

Зарубежное кино [HDDVDRip / BDRip / WEB-DL / HDTV 1080/720р] Ровер / The Rover (Дэвид Мишо) [2014 г., драма, криминал, BDRip 1080p] MVO + AVO (Матвеев) + DVO (Paradox) + VO (R.A.I.M) + Original (Eng) + Sub (Rus, Eng) 90ytr90
9 | 1

0 | 245

4

23.11.2014 16:19


Яндекс.Метрика powered by Sphinx


В Н И М А Н И Е
Сайт не распространяет и не хранит электронные версии произведений, а лишь бесплатно и без коммерческой выгоды (не требуя взамен платы,
SMS и т.д.) предоставляет доступ к создаваемому пользователями каталогу ссылок на торрент-файлы, которые содержат только списки хеш-сумм.
Убедительная просьба с жалобами обращаться напрямую к пользователю, разместившему торрент файл.

Вверх