Loading...
Error

Резня на пляже в Джерси / Jersey Shore Massacre (Пол Тарнопол) [2014 г., ужасы, комедия, HDRip-AVC] VO [xixidok] + Original

Статистика раздачи
Размер:  1,45 GB   |    Зарегистрирован:  2 года 2 месяца   |    Скачан:  14 раз

Полного источника не было: 10 месяцев

Сидов:  0  |  0 KB/s  ]   Личеров:  0  |  0 KB/s  ]

* - сиды/пиры с внешних источников

   
 
Автор Сообщение

Паукан Пол:Муж

12-Сен-2014 08:39

Резня на пляже в Джерси / Jersey Shore Massacre


Название: Резня на пляже в Джерси
Оригинальное название: Jersey Shore Massacre
Год выпуска: 2014
Жанр: ужасы, комедия
Режиссер: Пол Тарнопол
В ролях: Даниэль Даллако, Анджелика Боччелла, Джонни Розелли, Крис Лаззаро, Николь Рутильяно, Эшли Митчелл, Кристина Скальоне, Брентон Дуплесси, Бретт Азар, Джон Майкл Гесте, Рон Джереми

Описание: Обычный уик-энд на пляже превращается в кровавую резню, когда шесть девушек и пятеро парней, сами того не подозревая, становятся мишенями психически невменяемого убийцы.



Выпущено: США
Продолжительность: 01:27:46
Озвучивание: Любительское (одноголосое) [xixidok]

Формат: MKV
Качество: HDRip-AVC
Видео: 1981 kb/s, 1024х432
Звук: Russian / English: AC3, 192 kb/s (2 ch)
Format : Matroska
Format version : Version 4 / Version 2
File size : 1.45 GiB
Duration : 1h 27mn
Overall bit rate : 2 362 Kbps
Encoded date : UTC 2014-09-11 22:19:59
Writing application : mkvmerge v6.1.0 ('Old Devil') built on Mar 4 2013 09:10:42
Writing library : libebml v1.3.0 + libmatroska v1.4.0

Video
ID : 1
Format : AVC
Format/Info : Advanced Video Codec
Format profile : High@L4.1
Format settings, CABAC : Yes
Format settings, ReFrames : 9 frames
Codec ID : V_MPEG4/ISO/AVC
Duration : 1h 27mn
Bit rate : 1 981 Kbps
Width : 1 024 pixels
Height : 432 pixels
Display aspect ratio : 2.40:1
Frame rate : 23.976 fps
Color space : YUV
Chroma subsampling : 4:2:0
Bit depth : 8 bits
Scan type : Progressive
Bits/(Pixel*Frame) : 0.187
Stream size : 1.18 GiB (82%)
Writing library : x264 core 130 r2273 b3065e6
Encoding settings : cabac=1 / ref=9 / deblock=1:-3:-3 / analyse=0x3:0x133 / me=umh / subme=11 / psy=1 / psy_rd=1.00:0.20 / mixed_ref=1 / me_range=32 / chroma_me=1 / trellis=2 / 8x8dct=1 / cqm=0 / deadzone=21,11 / fast_pskip=1 / chroma_qp_offset=-3 / threads=18 / lookahead_threads=3 / sliced_threads=0 / nr=0 / decimate=1 / interlaced=0 / bluray_compat=0 / constrained_intra=0 / bframes=8 / b_pyramid=2 / b_adapt=2 / b_bias=0 / direct=3 / weightb=1 / open_gop=0 / weightp=2 / keyint=250 / keyint_min=23 / scenecut=40 / intra_refresh=0 / rc=2pass / mbtree=0 / bitrate=1981 / ratetol=1.0 / qcomp=0.60 / qpmin=0 / qpmax=69 / qpstep=4 / cplxblur=20.0 / qblur=0.5 / ip_ratio=1.40 / pb_ratio=1.30 / aq=1:1.00
Language : English
Default : Yes
Forced : No

Audio #1
ID : 2
Format : AC-3
Format/Info : Audio Coding 3
Mode extension : CM (complete main)
Format settings, Endianness : Big
Codec ID : A_AC3
Duration : 1h 27mn
Bit rate mode : Constant
Bit rate : 192 Kbps
Channel(s) : 2 channels
Channel positions : Front: L R
Sampling rate : 44.1 KHz
Bit depth : 16 bits
Compression mode : Lossy
Stream size : 121 MiB (8%)
Language : Russian
Default : Yes
Forced : No

Audio #2
ID : 3
Format : AC-3
Format/Info : Audio Coding 3
Mode extension : CM (complete main)
Format settings, Endianness : Big
Codec ID : A_AC3
Duration : 1h 27mn
Bit rate mode : Constant
Bit rate : 192 Kbps
Channel(s) : 2 channels
Channel positions : Front: L R
Sampling rate : 48.0 KHz
Bit depth : 16 bits
Compression mode : Lossy
Stream size : 121 MiB (8%)
Language : English
Default : No
Forced : No
pic pic pic
Для увеличения картинки щелкните мышкой по превью

Этот торрент недоступен для скачивания без регистрации, однако доступен по публичной magnet-ссылке (источники с публичных трекеров). Перед использованием ссылки прочтите, пожалуйста Пользовательское соглашение, а также как можно дольше оставайтесь на раздаче! Для того, чтобы скачать сам торрент-файл (который видит больше источников), а также для того, чтобы поблагодарить релизера, вам необходимо зарегистрироваться. Если регистрироваться лень - вы можете также попробовать скачать релиз по нашим партнерским ссылкам ниже.

[underverse.su].t43810.torrent
Трекер: Зарегистрирован   [ 12.09.2014 08:39 ]  

Статус: проверено (by Паукан at 12.09.2014 08:40)
Поблагодарили: пока никто не поблагодарил...
Тип торрента: публичный - доступные источники с открытых трекеров: 
Размер: 1,45 GB (занимает 1/3 DVDR, для записи нужно 1 болванка DVDR/RW)
 
 

Яндекс.Метрика powered by Sphinx


В Н И М А Н И Е
Сайт не распространяет и не хранит электронные версии произведений, а лишь бесплатно и без коммерческой выгоды (не требуя взамен платы,
SMS и т.д.) предоставляет доступ к создаваемому пользователями каталогу ссылок на торрент-файлы, которые содержат только списки хеш-сумм.
Убедительная просьба с жалобами обращаться напрямую к пользователю, разместившему торрент файл.

Вверх