Loading...
Error

Блиндаж (1-4 серия из 4) (Александр Горновский) [2012 г., драма, военный, DVDRip]

Статистика раздачи
Размер:  2,19 GB   |    Зарегистрирован:  2 года 2 месяца   |    Скачан:  38 раз
Сидов:  1  |  0 KB/s  ]   Личеров:  0  |  0 KB/s  ]

* - сиды/пиры с внешних источников

   
 
Автор Сообщение

nemos Пол:Муж

11-Сен-2014 18:23

Блиндаж


Год выпуска: 2012
Жанр: драма, военный
Страна: Россия
Режиссер: Александр Горновский
В ролях: Ирина Рахманова, Игорь Хрипунов, Евгений Князев, Алексей Шевченков, Фёдор Лавров, Сергей Угрюмов, Кирилл Полухин, Евгений Атарик
Сюжет фильма:
Июль 1941 года. Идут ожесточенные бои под белорусским селом Любаши. Многие жители успевают скрыться в лесах, но некоторые оказываются прямо в эпицентре жаркой битвы. Не в силах сдержать натиск немецких войск, советская армия быстро сдает свои позиции, и фронт отодвигается дальше на восток. Ослепший после взрыва, капитан Хлебников приходит в себя в окопном блиндаже. Понимая, что шансов уйти нет, он пытается застрелиться, но его находит оставшаяся в селе Серафима. Она решает помочь раненому солдату. Вскоре к компании Хлебникова присоединяется немец-дезертир Хольц, райкомовец Демидович и Нохим, чудом выживший после массового расстрела евреев. Все участники необычной компании плохо ладят между собой, но понимая, что от их осторожности зависит жизнь Серафимы, которая с риском для жизни обеспечивает их всем необходимым, они стараются жить в мире. Экранизация по произведению В. Быкова.


Качество видео: DVDRip

Продолжительность: 00:52:32 серия
Формат: AVI
Видео: XviD, 720x400, 1296 kbps
Аудио: русский, AC3 2.0, 192 kbps

Код:

D:\Фильмы Раздача-1\Blindazh.2011.DVDRip.2.18\Blindazh.2011.DVDRip.s4.avi
   General
      Complete name : D:\Фильмы Раздача-1\Blindazh.2011.DVDRip.2.18\Blindazh.2011.DVDRip.s4.avi
      Format : AVI
      Format/Info : Audio Video Interleave
      File size : 563 MiB
      Duration : 52mn 32s
      Overall bit rate : 1 498 Kbps
      Writing application : VirtualDubModRus 1.5.10.2 (build 2542/release)
      Writing library : VirtualDubMod build 2542/release
   Video #0
      ID : 0
      Format : MPEG-4 Visual
      Format profile : Advanced Simple@L5
      Format settings, BVOP : 1
      Format settings, QPel : No
      Format settings, GMC : No warppoints
      Format settings, Matrix : Custom
      Codec ID : XVID
      Codec ID/Hint : XviD
      Duration : 52mn 32s
      Bit rate : 1 296 Kbps
      Width : 720 pixels
      Height : 400 pixels
      Display aspect ratio : 16:9
      Frame rate : 25.000 fps
      Color space : YUV
      Chroma subsampling : 4:2:0
      Bit depth : 8 bits
      Scan type : Progressive
      Compression mode : Lossy
      Bits/(Pixel*Frame) : 0.180
      Stream size : 487 MiB (87%)
      Writing library : XviD 64
   Audio #1
      ID : 1
      Format : AC-3
      Format/Info : Audio Coding 3
      Mode extension : CM (complete main)
      Format settings, Endianness : Big
      Codec ID : 2000
      Duration : 52mn 31s
      Bit rate mode : Constant
      Bit rate : 192 Kbps
      Channel(s) : 2 channels
      Channel positions : Front: L R
      Sampling rate : 48.0 KHz
      Bit depth : 16 bits
      Compression mode : Lossy
      Stream size : 72.1 MiB (13%)
      Alignment : Split accross interleaves
      Interleave, duration : 40 ms (1.00 video frame)
      Interleave, preload duration : 500 ms
picpicpicpicpicpicpicpicpicpicpicpicpicpicpicpicpicpicpic
Для увеличения картинки щелкните мышкой по превью

Этот торрент недоступен для скачивания без регистрации, однако доступен по публичной magnet-ссылке (источники с публичных трекеров). Перед использованием ссылки прочтите, пожалуйста Пользовательское соглашение, а также как можно дольше оставайтесь на раздаче! Для того, чтобы скачать сам торрент-файл (который видит больше источников), а также для того, чтобы поблагодарить релизера, вам необходимо зарегистрироваться. Если регистрироваться лень - вы можете также попробовать скачать релиз по нашим партнерским ссылкам ниже.

[underverse.su].t43802.torrent
Трекер: Зарегистрирован   [ 11.09.2014 18:23 ]  

Статус: проверено (by nemos at 11.09.2014 18:24)
Поблагодарили: 2 человека
Тип торрента: публичный - доступные источники с открытых трекеров: 
Размер: 2,19 GB (занимает 1/2 DVDR, для записи нужно 1 болванка DVDR/RW)
 
 

burkot55 

14-Сен-2014 05:15

Спасибо!!! :Yahoo!:

Яндекс.Метрика powered by Sphinx


В Н И М А Н И Е
Сайт не распространяет и не хранит электронные версии произведений, а лишь бесплатно и без коммерческой выгоды (не требуя взамен платы,
SMS и т.д.) предоставляет доступ к создаваемому пользователями каталогу ссылок на торрент-файлы, которые содержат только списки хеш-сумм.
Убедительная просьба с жалобами обращаться напрямую к пользователю, разместившему торрент файл.

Вверх