Loading...
Error

Единственный выстрел / A Single Shot (Дэвид М. Розенталь) [2013 г., триллер, драма, криминал, HDRip] MVO (iTunes Russia)

Статистика раздачи
Размер:  1,46 GB   |    Зарегистрирован:  2 года 2 месяца   |    Скачан:  29 раз

Полного источника не было: 1 год 8 месяцев

Сидов:  0  |  0 KB/s  ]   Личеров:  0  |  0 KB/s  ]

* - сиды/пиры с внешних источников

   
 
Автор Сообщение

Паукан Пол:Муж

10-Сен-2014 11:41

Единственный выстрел / A Single Shot


Название: Единственный выстрел
Оригинальное название: A Single Shot
Год выхода: 2013
Жанр: триллер, драма, криминал
Режиссёр: Дэвид М. Розенталь
В ролях: Сэм Рокуэлл, Джеффри Райт, Келли Райлли, Джейсон Айзекс, Джо Андерсон, Офелия Ловибонд, Тед Левайн, Уильям Х. Мэйси, Эми Слоун, У. Эрл Браун

Описание:
История о том, как Джон Мун пошел охотиться на оленя и случайно застрелил молодую женщину, у которой затем он нашел письмо и большую сумму денег. И в итоге паническое сокрытие несчастного случая превратилось в бесконечный кошмар.



Страна: Великобритания, США, Канада
Студия: Unified Pictures, Media House Capital, A Single Shot Productions
Продолжительность: 01:55:46
Перевод: Профессиональный (многоголосый закадровый) (iTunes Russia)

Кодек: XviD
Качество: HDRip [исх. BDRip 1080p nnm-club]
Видео: 720x304, 1410 kbps, 23,976 fps, 0,269 Bits/(Pixel*Frame)
Аудио: AC3, 48 kHz, 6 ch, 384 kbps
Субтитры: Нет

Автор рипа: _Bathory_
General
Complete name : D:A.Single.Shot.2013.HDRip.by_Bathory.avi
Format : AVI
Format/Info : Audio Video Interleave
File size : 1.46 GiB
Duration : 1h 55mn
Overall bit rate : 1 804 Kbps
Writing application : VirtualDubMod 1.5.10.3 | www.virtualdub-fr.org || (build 2550/release)
Writing library : VirtualDubMod build 2550/release

Video
ID : 0
Format : MPEG-4 Visual
Format profile : Advanced Simple@L5
Format settings, BVOP : 1
Format settings, QPel : No
Format settings, GMC : No warppoints
Format settings, Matrix : Default (MPEG)
Codec ID : XVID
Codec ID/Hint : XviD
Duration : 1h 55mn
Bit rate : 1 410 Kbps
Width : 720 pixels
Height : 304 pixels
Display aspect ratio : 2.35:1
Frame rate : 23.976 fps
Color space : YUV
Chroma subsampling : 4:2:0
Bit depth : 8 bits
Scan type : Progressive
Compression mode : Lossy
Bits/(Pixel*Frame) : 0.269
Stream size : 1.14 GiB (78%)
Writing library : XviD 73

Audio
ID : 1
Format : AC-3
Format/Info : Audio Coding 3
Mode extension : CM (complete main)
Format settings, Endianness : Big
Codec ID : 2000
Duration : 1h 55mn
Bit rate mode : Constant
Bit rate : 384 Kbps
Channel(s) : 6 channels
Channel positions : Front: L C R, Side: L R, LFE
Sampling rate : 48.0 KHz
Bit depth : 16 bits
Compression mode : Lossy
Stream size : 318 MiB (21%)
Alignment : Split accross interleaves
Interleave, duration : 42 ms (1.00 video frame)
Interleave, preload duration : 500 ms
pic pic pic
Для увеличения картинки щелкните мышкой по превью

Этот торрент недоступен для скачивания без регистрации, однако доступен по публичной magnet-ссылке (источники с публичных трекеров). Перед использованием ссылки прочтите, пожалуйста Пользовательское соглашение, а также как можно дольше оставайтесь на раздаче! Для того, чтобы скачать сам торрент-файл (который видит больше источников), а также для того, чтобы поблагодарить релизера, вам необходимо зарегистрироваться. Если регистрироваться лень - вы можете также попробовать скачать релиз по нашим партнерским ссылкам ниже.

[underverse.su].t43767.torrent
Трекер: Зарегистрирован   [ 10.09.2014 11:41 ]  

Статус: T временная (by Паукан at 10.09.2014 11:41)
Поблагодарили: 2 человека
Тип торрента: публичный - доступные источники с открытых трекеров: 
Размер: 1,46 GB (занимает 1/3 DVDR, для записи нужно 1 болванка DVDR/RW)
 
 
Похожие темы
Форум Тема Автор Торрент Отв. Посл. сооб.
Зарубежное кино [DVDRip, Low-Res HDRip, и т.д.] Единственный выстрел / A Single Shot (Дэвид М. Розенталь) [2013, триллер, драма, криминал, WEB-DLRip] VO Чертёнок
15 | 0

0 | 1422

34

12.09.2013 14:31

Зарубежное кино [HDDVDRip / BDRip / WEB-DL / HDTV 1080/720р] Единственный выстрел / A Single Shot (Дэвид М. Розенталь) [2013 г., триллер, драма, криминал, WEB-DL 720p] VO (Max Nabokov) + Original Паукан
24 | 0

0 | 1164

18

12.09.2013 10:39


Яндекс.Метрика powered by Sphinx


В Н И М А Н И Е
Сайт не распространяет и не хранит электронные версии произведений, а лишь бесплатно и без коммерческой выгоды (не требуя взамен платы,
SMS и т.д.) предоставляет доступ к создаваемому пользователями каталогу ссылок на торрент-файлы, которые содержат только списки хеш-сумм.
Убедительная просьба с жалобами обращаться напрямую к пользователю, разместившему торрент файл.

Вверх