Loading...
Error

Годзилла / Godzilla (Гарет Эдвардс) [2014 г., фантастика, боевик, триллер, BDRip] Dub (Rus,Ukr) + Original + Sub (Rus,Ukr,Eng) HQ Underverse

Статистика раздачи
Размер:  2,17 GB   |    Зарегистрирован:  2 года 2 месяца   |    Скачан:  72 раза

Полного источника не было: 20 дней

Сидов:  0  |  0 KB/s  ]   Личеров:  0  |  0 KB/s  ]

* - сиды/пиры с внешних источников

   
 
Автор Сообщение

HQ Underverse 

10-Сен-2014 11:36

Годзилла / Godzilla


Год выпуска: 2014
Жанр: фантастика, боевик, триллер
Страна: США , Япония
Режиссер: Гарет Эдвардс
В ролях: Аарон Тейлор-Джонсон, Брайан Крэнстон, Элизабет Олсен, Жюльет Бинош, Дэвид Стрэтэйрн, Кен Ватанабе, Салли Хокинс, Эл Сапьенза, Брайан Маркинсон, Ричард Т. Джонс
Сюжет фильма:
Человечество случайно разбудило гигантское древнее существо, что повлекло за собой ужасающие последствия...

  • Мировая премьера: 8 мая 2014
  • Российская премьера: 15 мая 2014, «Каро-Премьер» 3D

|
Качество видео: BDRip

Продолжительность: 02:03:07
Формат: avi
Видео: XviD, 720x304, 2068 kbps
Аудио #1: русский, дублированный [лицензия], AC3 5.1, 448 kbps
Аудио #2: английский, оригинал, AC3 5.1, 448 kbps (отдельным файлом: здесь)
Аудио #3: украинский, дублированный [лицензия], AC3 5.1, 448 kbps (отдельным файлом: здесь)
Субтитры #1: внешние, SRT, русский
Субтитры #5: внешние, SRT, русский (форсированные)
Субтитры #2: внешние, SRT, украинский
Субтитры #3: внешние, SRT, украинский (форсированные)
Субтитры #4: внешние, SRT, английский

Код:

General
Complete name                    : Y:\Годзилла\Godzilla.2014.BDRip.XviD.AC3.Rus.D.HQ.Underverse.avi
Format                           : AVI
Format/Info                      : Audio Video Interleave
Format profile                   : OpenDML
File size                        : 2.17 GiB
Duration                         : 2h 3mn
Overall bit rate                 : 2 529 Kbps
Writing application              : VirtualDubMod 1.5.10.3 | www.virtualdub-fr.org || (build 2550/release)
Writing library                  : VirtualDubMod build 2550/release

Video
ID                               : 0
Format                           : MPEG-4 Visual
Format profile                   : Streaming Video@L1
Format settings, BVOP            : Yes
Format settings, QPel            : No
Format settings, GMC             : No warppoints
Format settings, Matrix          : Custom
Codec ID                         : XVID
Codec ID/Hint                    : XviD
Duration                         : 2h 3mn
Bit rate                         : 2 069 Kbps
Width                            : 720 pixels
Height                           : 304 pixels
Display aspect ratio             : 2.35
Frame rate                       : 23.976 fps
Resolution                       : 24 bits
Colorimetry                      : 4:2:0
Scan type                        : Progressive
Bits/(Pixel*Frame)               : 0.394
Stream size                      : 1.78 GiB (82%)
Writing library                  : XviD 64

Audio
ID                               : 1
Format                           : AC-3
Format/Info                      : Audio Coding 3
Codec ID                         : 2000
Duration                         : 2h 3mn
Bit rate mode                    : Constant
Bit rate                         : 448 Kbps
Channel(s)                       : 6 channels
Channel positions                : Front: L C R, Surround: L R, LFE
Sampling rate                    : 48.0 KHz
Stream size                      : 395 MiB (18%)
Alignment                        : Split accross interleaves
Interleave, duration             : 42 ms (1.00 video frame)
Interleave, preload duration     : 500 ms

General
Complete name                    : Y:\Годзилла\Godzilla.2014.BDRip.XviD.AC3.Rus.D.HQ.Underverse.ENG.ac3
Format                           : AC-3
Format/Info                      : Audio Coding 3
File size                        : 395 MiB
Duration                         : 2h 3mn
Overall bit rate                 : 448 Kbps

Audio
Format                           : AC-3
Format/Info                      : Audio Coding 3
Duration                         : 2h 3mn
Bit rate mode                    : Constant
Bit rate                         : 448 Kbps
Channel(s)                       : 6 channels
Channel positions                : Front: L C R, Surround: L R, LFE
Sampling rate                    : 48.0 KHz
Stream size                      : 395 MiB (100%)

General
Complete name                    : Y:\Годзилла\Godzilla.2014.BDRip.XviD.AC3.Rus.D.HQ.Underverse.UKR.ac3
Format                           : AC-3
Format/Info                      : Audio Coding 3
File size                        : 395 MiB
Duration                         : 2h 3mn
Overall bit rate                 : 448 Kbps

Audio
Format                           : AC-3
Format/Info                      : Audio Coding 3
Duration                         : 2h 3mn
Bit rate mode                    : Constant
Bit rate                         : 448 Kbps
Channel(s)                       : 6 channels
Channel positions                : Front: L C R, Surround: L R, LFE
Sampling rate                    : 48.0 KHz
Stream size                      : 395 MiB (100%)

Релиз группы:

picpicpic
Для увеличения картинки щелкните мышкой по превью

Этот торрент недоступен для скачивания без регистрации, однако доступен по публичной magnet-ссылке (источники с публичных трекеров). Перед использованием ссылки прочтите, пожалуйста Пользовательское соглашение, а также как можно дольше оставайтесь на раздаче! Для того, чтобы скачать сам торрент-файл (который видит больше источников), а также для того, чтобы поблагодарить релизера, вам необходимо зарегистрироваться. Если регистрироваться лень - вы можете также попробовать скачать релиз по нашим партнерским ссылкам ниже.

[underverse.su].t43766.torrent
Трекер: Зарегистрирован   [ 10.09.2014 13:34 ]  

Статус: проверено (by Паукан at 10.09.2014 13:34)
Поблагодарили: 4 человека
Тип торрента: публичный - доступные источники с открытых трекеров: 
Размер: 2,17 GB (занимает 1/2 DVDR, для записи нужно 1 болванка DVDR/RW)
 
 
Похожие темы
Форум Тема Автор Торрент Отв. Посл. сооб.
T Зарубежное кино [DVDRip, Low-Res HDRip, и т.д.] Годзилла / Shin Gojira (Хидэаки Анно / Hideaki Anno, Синдзи Хигути / Shinji Higuchi) [2016 г., ужасы, фантастика, боевик, драма, приключения, WEBRip] MVO (Колобок) 90ytr90
786 | 41

0 | 243

14

02.12.2016 18:52

Зарубежное кино [DVDRip, Low-Res HDRip, и т.д.] Годзилла / Gojira (Кодзи Хашимото, Р.Дж. Кизер) [1984 г., ужасы, фантастика, боевик, DVDRip] VO Паукан
2 | 0

0 | 2191

4

26.06.2014 13:44

T Зарубежное кино [DVDRip, Low-Res HDRip, и т.д.] Годзилла / Godzilla (Гарет Эдвардс) [2014 г., Фантастика, Боевик, Триллер, HDRip-AVC] Dub (RUS) + VO (RUS) + Original (ENG) Чистый звук Ведьмочка
7 | 0

0 | 755

35

24.08.2014 07:14

Зарубежное кино [DVDRip, Low-Res HDRip, и т.д.] Годзилла / Godzilla (Гарет Эдвардс / Gareth Edwards) [2014 г., фантастика, боевик, приключения, HDRip] Dub [лицензия] Паукан
49 | 5

0 | 712

47

12.09.2014 13:47

Зарубежное кино [DVDRip, Low-Res HDRip, и т.д.] Годзилла / Godzilla (Гарет Эдвардс) [2014 г., фантастика, боевик, приключения, BDRip-AVC] Dub (Rus, Ukr) + Original + Sub (Rus, Ukr, Eng) Паукан
0 | 0

0 | 657

22

12.09.2014 13:53

T Зарубежное кино [HDDVDRip / BDRip / WEB-DL / HDTV 1080/720р] Годзилла / Shin Gojira (Хидэаки Анно / Hideaki Anno, Синдзи Хигути / Shinji Higuchi) [2016 г., ужасы, фантастика, боевик, драма, приключения, WEBRip 720p] MVO (Колобок) 90ytr90
56 | 1

0 | 207

10

02.12.2016 18:56

Зарубежное кино [HDDVDRip / BDRip / WEB-DL / HDTV 1080/720р] Годзилла / Godzilla (Гарет Эдвардс / Gareth Edwards) [2014 г., фантастика, боевик, триллер, BDRip 1080p] Dub (Rus, Ukr) + Original + Sub (Rus, Ukr, Eng) Паукан
4 | 1

0 | 624

13

12.09.2014 13:39

Зарубежное кино [HDDVDRip / BDRip / WEB-DL / HDTV 1080/720р] Годзилла / Godzilla (Гарет Эдвардс) [2014 г., фантастика, боевик, приключения, BDRip 720p] Dub (Rus, Ukr) + Original + Sub (Rus, Ukr, Eng) Паукан
2 | 0

0 | 678

25

12.09.2014 13:42


Яндекс.Метрика powered by Sphinx


В Н И М А Н И Е
Сайт не распространяет и не хранит электронные версии произведений, а лишь бесплатно и без коммерческой выгоды (не требуя взамен платы,
SMS и т.д.) предоставляет доступ к создаваемому пользователями каталогу ссылок на торрент-файлы, которые содержат только списки хеш-сумм.
Убедительная просьба с жалобами обращаться напрямую к пользователю, разместившему торрент файл.

Вверх