Loading...
Error

Игра на выбывание (1-8 серии из 8) (Вадим Шмелев) [2004 г., боевик, криминал, детектив, DVDRip]

Статистика раздачи
Размер:  4,11 GB   |    Зарегистрирован:  2 года 3 месяца   |    Скачан:  12 раз

Полного источника не было: 9 месяцев

Сидов:  0  |  0 KB/s  ]   Личеров:  0  |  0 KB/s  ]

* - сиды/пиры с внешних источников

   
 
Автор Сообщение

nemos Пол:Муж

06-Сен-2014 08:15

Игра на выбывание


Год выпуска: 2004
Жанр: боевик, криминал, детектив
Страна: Россия
Режиссер: Вадим Шмелев
В ролях: Павел Майков, Олег Штефанко, Андрей Градов, Екатерина Семёнова, Сергей Жигунов, Борис Невзоров, Лев Прыгунов, Сергей Пенкин, Анатолий Котенёв, Виталий Альшанский, Андрей Лебединский, Артём Мазунов, Александр Макогон
Сюжет фильма:
Элитный дом в престижном районе города. Двадцать этажей, двести квартир, несколько сотен жильцов. Однажды утром все его обитатели получают странное письмо от человека, называющего себя Игрок: "Вы должны собрать выкуп – один миллион долларов через три дня, иначе я буду убивать по одному жильцу каждый день. Я готовился к этой операции целый год, прятаться и бежать бесполезно, вам не спастись". И люди начинают гибнуть...


Качество видео: DVDRip

Продолжительность: 00:48:21 серия
Формат: AVI
Видео: XviD, 720x400, 1316 kbps
Аудио: русский, AC3 2.0, 192 kbps

Код:

D:\Фильмы Раздача-1\Igra.Na.Vibivanie.(8.Seriy.Iz.8).2004.XviD.DVDRip.*другой трекер*\Igra.Na.Vibivanie.(8.Seriya.Iz.8).2004.XviD.DVDRip.*другой трекер*.avi
   General
      Complete name : D:\Фильмы Раздача-1\Igra.Na.Vibivanie.(8.Seriy.Iz.8).2004.XviD.DVDRip.*другой трекер*\Igra.Na.Vibivanie.(8.Seriya.Iz.8).2004.XviD.DVDRip.*другой трекер*.avi
      Format : AVI
      Format/Info : Audio Video Interleave
      File size : 525 MiB
      Duration : 48mn 21s
      Overall bit rate : 1 518 Kbps
      Writing application : VirtualDubMod 1.5.10.2 (build 2540/release)
      Writing library : VirtualDubMod build 2540/release
   Video #0
      ID : 0
      Format : MPEG-4 Visual
      Format profile : Advanced Simple@L5
      Format settings, BVOP : 1
      Format settings, QPel : No
      Format settings, GMC : No warppoints
      Format settings, Matrix : Default (MPEG)
      Codec ID : XVID
      Codec ID/Hint : XviD
      Duration : 48mn 21s
      Bit rate : 1 316 Kbps
      Width : 720 pixels
      Height : 400 pixels
      Display aspect ratio : 16:9
      Frame rate : 25.000 fps
      Color space : YUV
      Chroma subsampling : 4:2:0
      Bit depth : 8 bits
      Scan type : Progressive
      Compression mode : Lossy
      Bits/(Pixel*Frame) : 0.183
      Stream size : 455 MiB (87%)
      Writing library : XviD 1.2.1 (UTC 2008-12-04)
   Audio #1
      ID : 1
      Format : AC-3
      Format/Info : Audio Coding 3
      Mode extension : CM (complete main)
      Format settings, Endianness : Big
      Codec ID : 2000
      Duration : 48mn 21s
      Bit rate mode : Constant
      Bit rate : 192 Kbps
      Channel(s) : 2 channels
      Channel positions : Front: L R
      Sampling rate : 48.0 KHz
      Bit depth : 16 bits
      Compression mode : Lossy
      Stream size : 66.4 MiB (13%)
      Alignment : Split accross interleaves
      Interleave, duration : 40 ms (1.00 video frame)
      Interleave, preload duration : 500 ms
picpicpicpicpicpicpicpicpicpicpicpic
Для увеличения картинки щелкните мышкой по превью

Этот торрент недоступен для скачивания без регистрации, однако доступен по публичной magnet-ссылке (источники с публичных трекеров). Перед использованием ссылки прочтите, пожалуйста Пользовательское соглашение, а также как можно дольше оставайтесь на раздаче! Для того, чтобы скачать сам торрент-файл (который видит больше источников), а также для того, чтобы поблагодарить релизера, вам необходимо зарегистрироваться. Если регистрироваться лень - вы можете также попробовать скачать релиз по нашим партнерским ссылкам ниже.

[underverse.su].t43642.torrent
Трекер: Зарегистрирован   [ 06.09.2014 08:15 ]  

Статус: проверено (by nemos at 06.09.2014 08:15)
Поблагодарили: 1 человек
Тип торрента: публичный - доступные источники с открытых трекеров: 
Размер: 4,11 GB (занимает 0,94 DVDR, для записи нужно 1 болванка DVDR/RW)
 
 
Похожие темы
Форум Тема Автор Торрент Отв. Посл. сооб.
Зарубежное кино [DVDRip, Low-Res HDRip, и т.д.] Игра на выживание / Gone (Эйтор Далия / Heitor Dhalia) [2012 г., триллер, драма, DVDRip] [лицензия] 90ytr90
6 | 0

0 | 1021

20

20.03.2012 13:53

Зарубежное кино [DVDRip, Low-Res HDRip, и т.д.] Игра на выживание / Gone (Эйтор Далия / Heitor Dhalia) [2012 г., триллер, драма, HDRip] [лицензия] 90ytr90
4 | 0

0 | 648

15

06.04.2012 11:39

Зарубежное кино [DVDRip, Low-Res HDRip, и т.д.] Игра на выживание / Лесная глушь / Backwoods (Марти Уайсс) [2007 г., Ужасы, Боевик, Триллер, DVDRip] MVO (RUS) Ведьмочка
0 | 0

0 | 1115

14

28.08.2014 23:39

T Зарубежное кино [DVDRip, Low-Res HDRip, и т.д.] Игра на высоте / When the Game Stands Tall (Томас Картер) [2014 г., Драма, Спорт, WEB-DLRip] MVO (RUS, iTunes Russia) + Original (ENG) Ведьмочка
9 | 0

0 | 382

4

17.11.2014 10:34

T Зарубежное кино [DVDRip, Low-Res HDRip, и т.д.] Игра на высоте / When the Game Stands Tall (Томас Картер) [2014 г., Драма, Спорт, WEB-DLRip] MVO (RUS, iTunes Russia) Ведьмочка
120 | 1

0 | 499

8

17.11.2014 10:43

T Зарубежное кино [DVDRip, Low-Res HDRip, и т.д.] Игра на высоте / When the Game Stands Tall (Томас Картер / Thomas Carter) [2014 г., драма, спорт, HDRip] MVO (iTunes) 90ytr90
7 | 0

0 | 399

8

23.11.2014 09:40

Зарубежное кино [DVDRip, Low-Res HDRip, и т.д.] Игра на выживание / Beyond the Reach (Жан-Батист Леонетти) [2014 г., триллер, WEB-DLRip] DVO [ColdFilm] + Original Паукан
28 | 3

0 | 880

43

23.04.2015 12:29

Зарубежное кино [DVDRip, Low-Res HDRip, и т.д.] Игра на выживание / Beyond the Reach (Жан-Батист Леонетти) [2014 г., триллер, BDRip-AVC] Dub + Subs (Eng) makkol
3 | 0

0 | 673

22

30.08.2015 12:49

Зарубежное кино HQ Игра на выживание / Gone (Эйтор Далия) [2012 г., триллер, драма, HDRip] (Rus) HQ Underverse HQ Underverse
0 | 0

0 | 1287

17

06.04.2012 17:11

T Зарубежное кино [HDDVDRip / BDRip / WEB-DL / HDTV 1080/720р] Игра на высоте / When the Game Stands Tall (Томас Картер / Thomas Carter) [2014 г., драма, спорт, BDRip 720p] MVO (iTunes) + Original (Eng) + Sub (Eng) 90ytr90
1 | 0

0 | 378

0

23.11.2014 09:49


Яндекс.Метрика powered by Sphinx


В Н И М А Н И Е
Сайт не распространяет и не хранит электронные версии произведений, а лишь бесплатно и без коммерческой выгоды (не требуя взамен платы,
SMS и т.д.) предоставляет доступ к создаваемому пользователями каталогу ссылок на торрент-файлы, которые содержат только списки хеш-сумм.
Убедительная просьба с жалобами обращаться напрямую к пользователю, разместившему торрент файл.

Вверх