Loading...
Error

Чао, Федерико! / Серии 1-4 из 4 (Елена Новикова) [2014 г., комедия, HDTVRip]

Статистика раздачи
Размер:  2,15 GB   |    Зарегистрирован:  2 года 2 месяца   |    Скачан:  14 раз

Полного источника не было: 9 месяцев

Сидов:  0  |  0 KB/s  ]   Личеров:  0  |  0 KB/s  ]

* - сиды/пиры с внешних источников

   
 
Автор Сообщение

nemos Пол:Муж

06-Сен-2014 07:38

Чао, Федерико!


Год выпуска: 5 сентября 2014
Жанр: комедия
Страна: Россия
Режиссер: Елена Новикова
В ролях: Сергей Баталов (Василий Иванов), Ольга Машная (Галина Иванова), Галина Сазонова (Алина), Виктор Добронравов, Андрей Бурковский, Виктор Логинов, Андрей Заводюк (Валерий), Антонио Виллани (Франко)
Сюжет фильма:
Ворчливый пенсионер Василий Иванов и его жена Галина получают от детей на годовщину свадьбы подарок - путешествие в Италию. Вася уже как год на пенсии, и безделье его очень сильно тяготит, кроме того, у него проблемы с сердцем, так что жена запрещает ему напрягаться, от чего он ворчит еще больше. Тур Ивановы выбирают максимально бюджетный, чтобы не доставлять хлопот детям, и отправляются в путешествие. В аэропорту Вася и Галина знакомятся со своими сверстниками Валерием и Алиной, которые тоже летят в Италию. Но стоит женщинам отвернуться, как заядлый рыбак Вася и ученый-ихтиолог Валера вдрызг ссорятся! Так что начало путешествия у Ивановых не задается.
В это время в Москве их «непутевый» зять Игорь расследует дело о мошенничестве. Он возлагает на него большие надежды, думает, что за раскрытие его повысят, и он докажет своей семье (и в первую очередь тестю), что чего-то стоит!..


Качество видео: HDTVRip

Продолжительность: 00:44:37(Серия)
Формат: AVI
Видео: XviD, 720x400, 1521 kbps
Аудио: русский, AC3 2.0, 192 kbps

Код:

General
Название                            : I:\Ciao.Federicco.2014.HDTVRip.RG.Russkie.serialy.&.Files-x\04.Ciao.Federicco.2014.HDTVRip.RG.Russkie.serialy.&.Files-x.avi
Формат                                   : AVI
Формат/Info                              : Audio Video Interleave
Размер файла                                : 550 MiB
Длительность                                 : 44mn 37s
Общий Битрейт                         : 1 723 Kbps
Создано приложением                      : VirtualDubMod 1.5.10.3 | www.virtualdub-fr.org || (build 2550/release)
Writing library                          : VirtualDubMod build 2550/release

Video
ID                                       : 0
Формат                                   : MPEG-4 Visual
Формат profile                           : Advanced Simple@L5
Формат настройки, BVOP                    : 1
Формат настройки, QPel                    : No
Формат настройки, GMC                     : No warppoints
Формат настройки, Matrix                  : Default (H.263)
Кодек ID                                 : XVID
Кодек ID/Hint                            : XviD
Длительность                                 : 44mn 37s
Битрейт                                 : 1 521 Kbps
Width                                    : 720 пикселей
Высота                                   : 400 пикселей
Соотношение кадра                     : 16:9
Частота кадров                               : 25.000 fps
Цветопередача                              : YUV
Chroma subsampling                       : 4:2:0
Разрядность                                : 8 bits
Тип сканирования                                : Progressive
Режим сжатия                         : Lossy
Bits/(Pixel*Frame)                       : 0.211
Размер потока                              : 486 MiB (88%)
Writing library                          : XviD 1.2.1 (UTC 2008-12-04)

Audio
ID                                       : 1
Формат                                   : AC-3
Формат/Info                              : Audio Coding 3
Расширение режима                           : CM (complete main)
Кодек ID                                 : 2000
Длительность                                 : 44mn 37s
Битрейт mode                            : Constant
Битрейт                                 : 192 Kbps
Каналы(s)                               : 2 канала
Каналы positions                        : Front: L R
Частота                            : 48.0 KHz
Разрядность                                : 16 bits
Режим сжатия                         : Lossy
Размер потока                              : 61.3 MiB (11%)
Выравнивание                                : Split accross interleaves
Interleave, Длительность                     : 40 ms (1.00 video frame)
Interleave, preload Длительность             : 500 ms
picpicpicpicpic
Для увеличения картинки щелкните мышкой по превью

Этот торрент недоступен для скачивания без регистрации, однако доступен по публичной magnet-ссылке (источники с публичных трекеров). Перед использованием ссылки прочтите, пожалуйста Пользовательское соглашение, а также как можно дольше оставайтесь на раздаче! Для того, чтобы скачать сам торрент-файл (который видит больше источников), а также для того, чтобы поблагодарить релизера, вам необходимо зарегистрироваться. Если регистрироваться лень - вы можете также попробовать скачать релиз по нашим партнерским ссылкам ниже.

[underverse.su].t43639.torrent
Трекер: Зарегистрирован   [ 06.09.2014 07:38 ]  

Статус: проверено (by nemos at 06.09.2014 07:41)
Поблагодарили: 1 человек
Тип торрента: публичный - доступные источники с открытых трекеров: 
Размер: 2,15 GB (занимает 0,49 DVDR, для записи нужно 1 болванка DVDR/RW)
 
 

Яндекс.Метрика powered by Sphinx


В Н И М А Н И Е
Сайт не распространяет и не хранит электронные версии произведений, а лишь бесплатно и без коммерческой выгоды (не требуя взамен платы,
SMS и т.д.) предоставляет доступ к создаваемому пользователями каталогу ссылок на торрент-файлы, которые содержат только списки хеш-сумм.
Убедительная просьба с жалобами обращаться напрямую к пользователю, разместившему торрент файл.

Вверх