Loading...
Error

Реальные пацаны. Возвращение [06х01-20] (Жанна Кадникова) [2014 г., комедия, WEB-DLRip]

 
Автор Сообщение

evropium Пол:Муж

05-Сен-2014 15:20

Реальные пацаны. Возвращение.
(6 Сезон)


Год выпуска: 2014
Жанр: комедия
Страна: Россия
Режиссер: Жанна Кадникова
В ролях: Николай Наумов, Зоя Бербер, Антон Богданов, Владимир Селиванов, Станислав Тляшев, Мария Скорницкая, Валентина Мазунина, Марина Федункив, Армен Бежанян, Игорь Ознобихин, Алексей Базанов, Анастасия Плоскова, Олег Верещагин
Сюжет фильма:
Лера предлагает Коляну сделать паузу в отношениях. Наумов переезжает жить к Антохе и Вовану в комфортабельный автосервис. Через пару месяцев холостой жизни Колян решает, что пауза затянулась, но неожиданная встреча с женой заканчивается тяжелой ссорой.
Качество видео: WEB-DLRip

Продолжительность: ~ 00:24:00
Формат: AVI
Видео: XviD, 720x400, ~1860 kbps
Аудио: русский, оригинал, MP3 2.0, 128 kbps

Код:

General
Complete name                  : E:\Realnye.pacany.Vozvraschenie.2014.WEB-DLRip.MegaPeer\Realnye.pacany.Vozvraschenie.(04.seriya).2014.WEB-DLRip.avi
Format                         : AVI
Format/Info                    : Audio Video Interleave
File size                      : 331 MiB
Duration                       : 23mn 8s
Overall bit rate               : 2 000 Kbps
Writing application            : VirtualDubMod 1.5.10.3 | www.virtualdub-fr.org || (build 2550/release)
Writing library                : VirtualDubMod build 2550/release

Video
ID                             : 0
Format                         : MPEG-4 Visual
Format profile                 : Advanced Simple@L5
Format settings, BVOP          : Yes
Format settings, QPel          : No
Format settings, GMC           : No warppoints
Format settings, Matrix        : Custom
Codec ID                       : XVID
Codec ID/Hint                  : XviD
Duration                       : 23mn 8s
Bit rate                       : 1 862 Kbps
Width                          : 720 pixels
Height                         : 400 pixels
Display aspect ratio           : 16:9
Frame rate                     : 25.000 fps
Color space                    : YUV
Chroma subsampling             : 4:2:0
Bit depth                      : 8 bits
Scan type                      : Progressive
Compression mode               : Lossy
Bits/(Pixel*Frame)             : 0.259
Stream size                    : 308 MiB (93%)
Writing library                : XviD 1.2.1 (UTC 2008-12-04)

Audio
ID                             : 1
Format                         : MPEG Audio
Format version                 : Version 1
Format profile                 : Layer 3
Codec ID                       : 55
Codec ID/Hint                  : MP3
Duration                       : 23mn 8s
Bit rate mode                  : Constant
Bit rate                       : 128 Kbps
Channel count                  : 2 channels
Sampling rate                  : 44.1 KHz
Compression mode               : Lossy
Stream size                    : 21.2 MiB (6%)
Alignment                      : Split accross interleaves
Interleave, duration           : 40 ms (1.00 video frame)
Interleave, preload duration   : 500 ms
Writing library                : LAME3.99r
Encoding settings              : -m s -V 4 -q 2 -lowpass 17 -b 128

picpicpic
Для увеличения картинки щелкните мышкой по превью
Похожие темы
Форум Тема Автор Торрент Отв. Посл. сооб.
Зарубежное кино [DVDRip, Low-Res HDRip, и т.д.] Реальные парни / Stand Up Guys (Фишер Стивенс) [2012 г., драма, комедия, криминал, DVDRip] Dub RG NewCinema
1 | 0

0 | 6020

190

05.03.2013 16:03

Зарубежное кино [DVDRip, Low-Res HDRip, и т.д.] Реальные парни / Stand Up Guys (Фишер Стивенс) [2012 г., драма, комедия, криминал, BDRip] Dub 90ytr90
2 | 0

1 | 2752

31

09.04.2013 14:42

Зарубежное кино [DVDRip, Low-Res HDRip, и т.д.] Реальные парни / Stand Up Guys (Фишер Стивенс) [2012 г., Драма, Комедия, Криминал, BDRip-AVC] Dub + Original Чертёнок
1 | 0

1 | 2967

57

14.04.2013 09:09

Зарубежное кино [DVDRip, Low-Res HDRip, и т.д.] Реальные парни / A Stand Up Guy (Майк Янг) [2016 г., комедия, DVDRip] MVO makkol
9 | 1

0 | 663

16

12.06.2016 22:55

Архив (Сериалы) Реальные Пацаны / Блю Маунтин Стэйт / Blue Mountain State / Сезон 1 / Серии 1-13 (13) (Брайн Роббинс) [2010 г., комедия, HDRip] Jimmy
0 | 0

3 | 1147

0

31.01.2018 16:55

Архив (Сериалы) Реальные пацаны ( Серии 1-14, 16-33 из 33) (Жанна Кадникова) [2010 г., Комедия, WEB-DLRip] Crihsler
0 | 0

31 | 6030

8

31.01.2018 17:01

Архив (Сериалы) Реальные пацаны / Сезон 5 / Серии 1-16 (?) (Жанна Кадникова) [2013 г., Комедия, SATRip] TERRAN
0 | 2

13 | 3966

31

31.01.2018 17:04

T Архив (Сериалы) Реальные пацаны (сезон 7 серий 1-8 из 20) (Жанна Кадникова) [2015 г., Комедийный телесериал, WEB-DLRip] ultarasbarcelona
0 | 0

2 | 1249

10

31.01.2018 17:07


Яндекс.Метрика powered by Sphinx


В Н И М А Н И Е
Сайт не распространяет и не хранит электронные версии произведений, а лишь бесплатно и без коммерческой выгоды (не требуя взамен платы,
SMS и т.д.) предоставляет доступ к создаваемому пользователями каталогу ссылок на торрент-файлы, которые содержат только списки хеш-сумм.
Убедительная просьба с жалобами обращаться напрямую к пользователю, разместившему торрент файл.

Вверх