Loading...
Error

Поддубный (Глеб Орлов) [2014 г., драма, спорт, биография, BDRip] HQ Underverse

Статистика раздачи
Размер:  2,17 GB   |    Зарегистрирован:  2 года 3 месяца   |    Скачан:  51 раз

Полного источника не было: 5 дней

Сидов:  0  |  0 KB/s  ]   Личеров:  0  |  0 KB/s  ]

* - сиды/пиры с внешних источников

   
 
Автор Сообщение

HQ Underverse 

04-Сен-2014 12:03

Поддубный


Год выпуска: 2014
Жанр: драма, спорт, биография
Страна: Россия
Режиссер: Глеб Орлов
В ролях: Михаил Пореченков, Дени Лаван, Владимир Ильин, Юрий Колокольников, Роман Мадянов, Александр Михайлов, Катерина Шпица, Максим Сапрыкин, Петр Крылов, Андрей Дебрин
Сюжет фильма:
Его называли Чемпион чемпионов. О силе и волевом характере Поддубного слагали легенды. И в 50 великий борец играючи одолевал молодых атлетов, а вопросах чести и справедливости не знал компромиссов. И лишь любовь смогла уложить Русского Богатыря на обе лопатки…

  • Мировая премьера: 10 июля 2014
  • Российская премьера: 10 июля 2014, «Централ Партнершип»

|
Качество видео: BDRip

Продолжительность: 01:57:41
Формат: avi
Видео: XviD, 720x304, 2178 kbps
Аудио: русский, оригинал, AC3 5.1, 448 kbps

Код:

General
Complete name                    : Y:\Поддубный\Poddubniy.2014.BDRip.XviD.AC3.Rus.O.HQ.Underverse.avi
Format                           : AVI
Format/Info                      : Audio Video Interleave
Format profile                   : OpenDML
File size                        : 2.17 GiB
Duration                         : 1h 57mn
Overall bit rate                 : 2 638 Kbps
Writing application              : VirtualDubMod 1.5.10.3 | www.virtualdub-fr.org || (build 2550/release)
Writing library                  : VirtualDubMod build 2550/release

Video
ID                               : 0
Format                           : MPEG-4 Visual
Format profile                   : Streaming Video@L1
Format settings, BVOP            : Yes
Format settings, QPel            : No
Format settings, GMC             : No warppoints
Format settings, Matrix          : Custom
Codec ID                         : XVID
Codec ID/Hint                    : XviD
Duration                         : 1h 57mn
Bit rate                         : 2 178 Kbps
Width                            : 720 pixels
Height                           : 304 pixels
Display aspect ratio             : 2.35
Frame rate                       : 25.000 fps
Resolution                       : 24 bits
Colorimetry                      : 4:2:0
Scan type                        : Progressive
Bits/(Pixel*Frame)               : 0.398
Stream size                      : 1.79 GiB (83%)
Writing library                  : XviD 64

Audio
ID                               : 1
Format                           : AC-3
Format/Info                      : Audio Coding 3
Codec ID                         : 2000
Duration                         : 1h 57mn
Bit rate mode                    : Constant
Bit rate                         : 448 Kbps
Channel(s)                       : 6 channels
Channel positions                : Front: L C R, Surround: L R, LFE
Sampling rate                    : 48.0 KHz
Stream size                      : 377 MiB (17%)
Alignment                        : Split accross interleaves
Interleave, duration             : 40 ms (1.00 video frame)
Interleave, preload duration     : 500 ms

Релиз группы:

picpicpic
Для увеличения картинки щелкните мышкой по превью

Этот торрент недоступен для скачивания без регистрации, однако доступен по публичной magnet-ссылке (источники с публичных трекеров). Перед использованием ссылки прочтите, пожалуйста Пользовательское соглашение, а также как можно дольше оставайтесь на раздаче! Для того, чтобы скачать сам торрент-файл (который видит больше источников), а также для того, чтобы поблагодарить релизера, вам необходимо зарегистрироваться. Если регистрироваться лень - вы можете также попробовать скачать релиз по нашим партнерским ссылкам ниже.

[underverse.su].t43574.torrent
Трекер: Зарегистрирован   [ 04.09.2014 12:03 ]  

Статус: проверено (by HQ Underverse at 04.09.2014 12:03)
Поблагодарили: 1 человек
Тип торрента: публичный - доступные источники с открытых трекеров: 
Размер: 2,17 GB (занимает 1/2 DVDR, для записи нужно 1 болванка DVDR/RW)
 
 
Похожие темы
Форум Тема Автор Торрент Отв. Посл. сооб.
Наше кино [DVDRip, Low-Res HDRip, и т.д.] Поддубный (Глеб Орлов) [2014 г., драма, спорт, биография, BDRip] 90ytr90
1 | 0

0 | 558

13

25.08.2014 05:13

Наше кино [DVDRip, Low-Res HDRip, и т.д.] Поддубный (Глеб Орлов) [2014 г., драма, спорт, биография, HDRip] 90ytr90
1 | 0

0 | 804

65

25.08.2014 05:19

Наше кино [DVDRip, Low-Res HDRip, и т.д.] Поддубный (Глеб Орлов) [2014 г., драма, спорт, биография, BDRip-AVC] 90ytr90
0 | 0

0 | 581

20

25.08.2014 05:24

Наше кино [DVD / HDDVD / BD / Remux] Поддубный (Глеб Орлов) [2014, Россия, драма, спорт, биография, Blu-ray disc 1080i] Original Rus uzi2009
21 | 0

0 | 849

9

02.09.2014 08:18

Наше кино [HDDVDRip / BDRip / WEB-DL / HDTV 1080/720р] Поддубный (Глеб Орлов) [2014 г., драма, спорт, биография, BDRip 1080p] 90ytr90
3 | 0

1 | 777

62

29.08.2014 16:32


Яндекс.Метрика powered by Sphinx


В Н И М А Н И Е
Сайт не распространяет и не хранит электронные версии произведений, а лишь бесплатно и без коммерческой выгоды (не требуя взамен платы,
SMS и т.д.) предоставляет доступ к создаваемому пользователями каталогу ссылок на торрент-файлы, которые содержат только списки хеш-сумм.
Убедительная просьба с жалобами обращаться напрямую к пользователю, разместившему торрент файл.

Вверх