Loading...
Error

Брат за брата 3 (1-30 серии из 30) (Олег Туранский, Олег Филипенко) [2014 г., криминал, драма, боевик, SatRip]

Статистика раздачи
Размер:  17,85 GB   |    Зарегистрирован:  2 года 2 месяца   |    Скачан:  10 раз

Полного источника не было: 7 дней

Сидов:  0  |  0 KB/s  ]   Личеров:  0  |  0 KB/s  ]

* - сиды/пиры с внешних источников

   
 
Автор Сообщение

nemos Пол:Муж

02-Сен-2014 07:40

Год выпуска: 2014
Жанр: криминал, драма, боевик
Страна: Россия , Украина
Режиссер: Олег Туранский, Олег Филипенко
В ролях: Ярослав Бойко, Владимир Стеклов, Константин Стрельников, Егор Клейменов, Анна Казючиц, Анатолий Зиновенко, Дмитрий Суржиков, Анна Донченко, Алексей Тритенко, Михаил Жонин, Владимир Осадчий, Станислав Боклан, Владимир Горянский, Владимир Ямненко, Михаил Романов, Валерий Сковронский, Валентин Касьян, Алексей Барбинов, Евгений Арабаджийский, Алла Мартынюк, Олег Масленников, Константин Чернокрылюк, Римма Зюбина, Тамара Яценко, Андрей Исаенко, Сергей Калантай, Анатолий Приймак, Ирина Барбинова, Алексей Цуркан, Сергей Шляхтюк, Сергей Коршиков, Владимир Беляев, Александра Киреева
Качество видео: SatRip

Продолжительность: 00:47:33(Серия)
Формат: AVI
Видео: XviD, 720x448, 1800 kbps
Аудио: русский, MP3 2.0, 128kbps


Прошел год с тех пор, как бандиты стреляли в капитана полиции Игоря Светлова и его друзей, а также взорвали машину Сергея Кравчука, в которой, кроме бизнесмена, находилась невеста Игоря — Ника. Убийцы так и не были найдены… Выживший после полученного ранения Светлов, остался служить в полиции, получил повышение, возглавил отдел уголовного розыска. Однако пережитая трагедия ожесточила Игоря, он замкнулся в себе, и практически открыто признается в том, что его борьба с преступностью не имеет смысла. Все чаще Светлов задумывается над тем, чтобы оставить службу и покинуть город, с которым у него связано столько трагических воспоминаний. Но Светлов дал себе слово, что не уйдет из органов до тех пор, пока не разберется в событиях годичной давности.

До тех пор, пока убийцы не понесут справедливого наказания. Точно такую же цель преследует вернувшийся в Гарлем из-за границы Кравчук, перенесший после взрыва в машине несколько сложных операций. Но если офицер полиции Светлов в ходе собственного расследования вынужден действовать в рамках закона, то Кравчук никакими условностями больше не связан. Он пойдет на крайние меры, чтобы наказать убийц своей дочери. По крупицам собирая информацию, Светлов и Кравчук шаг за шагом подбираются все ближе и ближе к тем, кто лишил жизни близких им людей. И в какой-то момент времени оба понимают, что настоящий враг гораздо ближе, чем они могли себе представить…

Код:

D:\Фильмы Раздача-1\Brat.za.brata-3.2014.SATRip\Brat.za.brata-3.Seriya.01.2014.SATRip.avi
   General
      Complete name : D:\Фильмы Раздача-1\Brat.za.brata-3.2014.SATRip\Brat.za.brata-3.Seriya.01.2014.SATRip.avi
      Format : AVI
      Format/Info : Audio Video Interleave
      File size : 659 MiB
      Duration : 47mn 33s
      Overall bit rate : 1 938 Kbps
      Writing application : VirtualDubMod 1.5.10.3 | www.virtualdub-fr.org || (build 2550/release)
      Writing library : VirtualDub build 32507/release
   Video #0
      ID : 0
      Format : MPEG-4 Visual
      Format profile : Advanced Simple@L5
      Format settings, BVOP : 2
      Format settings, QPel : No
      Format settings, GMC : No warppoints
      Format settings, Matrix : Default (MPEG)
      Codec ID : XVID
      Codec ID/Hint : XviD
      Duration : 47mn 33s
      Bit rate : 1 800 Kbps
      Width : 720 pixels
      Height : 448 pixels
      Display aspect ratio : 1.607
      Frame rate : 25.000 fps
      Color space : YUV
      Chroma subsampling : 4:2:0
      Bit depth : 8 bits
      Scan type : Progressive
      Compression mode : Lossy
      Bits/(Pixel*Frame) : 0.223
      Stream size : 612 MiB (93%)
      Writing library : XviD 1.2.1 (UTC 2008-12-04)
   Audio #1
      ID : 1
      Format : MPEG Audio
      Format version : Version 1
      Format profile : Layer 3
      Mode : Joint stereo
      Codec ID : 55
      Codec ID/Hint : MP3
      Duration : 47mn 33s
      Bit rate mode : Constant
      Bit rate : 128 Kbps
      Channel(s) : 2 channels
      Sampling rate : 48.0 KHz
      Compression mode : Lossy
      Stream size : 43.5 MiB (7%)
      Alignment : Aligned on interleaves
      Interleave, duration : 40 ms (1.00 video frame)
      Interleave, preload duration : 504 ms
      Writing library : LAME3.99r
      Encoding settings : -m j -V 4 -q 2 -lowpass 17 -b 128
picpicpicpicpicpicpicpicpicpicpicpicpicpicpicpicpicpicpicpic
Для увеличения картинки щелкните мышкой по превью

Этот торрент недоступен для скачивания без регистрации, однако доступен по публичной magnet-ссылке (источники с публичных трекеров). Перед использованием ссылки прочтите, пожалуйста Пользовательское соглашение, а также как можно дольше оставайтесь на раздаче! Для того, чтобы скачать сам торрент-файл (который видит больше источников), а также для того, чтобы поблагодарить релизера, вам необходимо зарегистрироваться. Если регистрироваться лень - вы можете также попробовать скачать релиз по нашим партнерским ссылкам ниже.

[underverse.su].t44018.torrent
Трекер: Зарегистрирован   [ 19.09.2014 15:52 ]  

Статус: проверено (by nemos at 19.09.2014 15:53)
Поблагодарили: 3 человека
Тип торрента: публичный - доступные источники с открытых трекеров: 
Размер: 17,85 GB (занимает 4,08 DVDR, для записи нужно 5 болванок DVDR/RW)
 
 
Похожие темы
Форум Тема Автор Торрент Отв. Посл. сооб.
xUSSR сериалы Брат за брата 2 / Серии: 1-24 (24) (Олег Туранский, Олег Филипенко) [2012г, Драма, криминал, SATRip] nemos
0 | 0

6 | 1352

11

23.11.2012 14:16

xUSSR сериалы Брат за брата / Серии: 1-24 из 24 (Олег Туранский, Олег Ларин) [2010, Детектив, SATRip] nemos
0 | 0

0 | 1039

11

15.11.2012 16:48



Последний раз редактировалось: nemos (06.11.2014 04:59), всего редактировалось 18 раз(а)

nemos Пол:Муж

03-Сен-2014 15:01

Торр файл обновлён! 30 серий.

Яндекс.Метрика powered by Sphinx


В Н И М А Н И Е
Сайт не распространяет и не хранит электронные версии произведений, а лишь бесплатно и без коммерческой выгоды (не требуя взамен платы,
SMS и т.д.) предоставляет доступ к создаваемому пользователями каталогу ссылок на торрент-файлы, которые содержат только списки хеш-сумм.
Убедительная просьба с жалобами обращаться напрямую к пользователю, разместившему торрент файл.

Вверх