Loading...
Error

Бывших не бывает (1-4 серии из 4) (Зиновий Ройзман) [2014 г., Боевик, IPTVRip]

Статистика раздачи
Размер:  2,22 GB   |    Зарегистрирован:  2 года 3 месяца   |    Скачан:  44 раза
Сидов:  1  |  44 KB/s  ]   Личеров:  0  |  0 KB/s  ]

* - сиды/пиры с внешних источников

   
 
Автор Сообщение

nemos Пол:Муж

31-Авг-2014 21:03

Бывших не бывает


Год выпуска: 2014
Жанр: Боевик
Страна: Россия
Режиссер: Зиновий Ройзман
В ролях: Сергей Горобченко, Павел Трубинер, Ольга Ломоносова, Юрий Назаров, Ольга Филиппова, Наталья Варнакова, Антон Сёмкин, Дмитрий Быковский-Ромашов, Азиз Бейшеналиев, Геннадий Пачис, Ангелина Добророднова, Николай Быстров, Ника Балина
Сюжет фильма:
У главного героя, бывшего разведчика Виктора произошло большое несчастье - его сын получил тяжелое ранение. Теперь ему необходимо собрать пол-миллиона долларов на операцию. Один криминальный авторитет предложил помощь, но взамен требует одну услугу: доставить определенный груз в соседний город. Виктор вынужден согласиться, ведь от этого зависит жизнь его сына...

Качество видео: IPTVRip

Продолжительность: 00:46:45 серия
Формат: AVI
Видео: XviD, 704x384, 1504 kbps
Аудио: русский, MP3 2.0, 128 kbps

Код:

D:\Фильмы Раздача-1\Bivshih ne bivaet 2013\1.avi
   General
      Complete name : D:\Фильмы Раздача-1\Bivshih ne bivaet 2013\1.avi
      Format : AVI
      Format/Info : Audio Video Interleave
      File size : 550 MiB
      Duration : 46mn 45s
      Overall bit rate : 1 645 Kbps
      Writing application : Lavf52.39.1
      Writing library : VirtualDub build 29808/release
   Video #0
      ID : 0
      Format : xvid
      Codec ID : xvid
      Duration : 46mn 45s
      Bit rate : 1 504 Kbps
      Width : 704 pixels
      Height : 384 pixels
      Display aspect ratio : 1.85:1
      Frame rate : 25.000 fps
      Bits/(Pixel*Frame) : 0.223
      Stream size : 503 MiB (91%)
   Audio #1
      ID : 1
      Format : MPEG Audio
      Format version : Version 1
      Format profile : Layer 3
      Mode : Joint stereo
      Mode extension : MS Stereo
      Codec ID : 55
      Codec ID/Hint : MP3
      Duration : 46mn 45s
      Bit rate mode : Constant
      Bit rate : 128 Kbps
      Channel(s) : 2 channels
      Sampling rate : 48.0 KHz
      Compression mode : Lossy
      Stream size : 42.8 MiB (8%)
      Alignment : Aligned on interleaves
      Interleave, duration : 24 ms (0.60 video frame)
      Interleave, preload duration : 504 ms
picpicpicpicpicpicpicpicpicpicpicpicpicpicpicpicpic
Для увеличения картинки щелкните мышкой по превью

Этот торрент недоступен для скачивания без регистрации, однако доступен по публичной magnet-ссылке (источники с публичных трекеров). Перед использованием ссылки прочтите, пожалуйста Пользовательское соглашение, а также как можно дольше оставайтесь на раздаче! Для того, чтобы скачать сам торрент-файл (который видит больше источников), а также для того, чтобы поблагодарить релизера, вам необходимо зарегистрироваться. Если регистрироваться лень - вы можете также попробовать скачать релиз по нашим партнерским ссылкам ниже.

[underverse.su].t43465.torrent
Трекер: Зарегистрирован   [ 01.09.2014 16:48 ]  

Статус: проверено (by nemos at 01.09.2014 16:48)
Поблагодарили: 4 человека
Тип торрента: публичный - доступные источники с открытых трекеров: 
Размер: 2,22 GB (занимает 0,51 DVDR, для записи нужно 1 болванка DVDR/RW)
 
 


Последний раз редактировалось: nemos (01.09.2014 16:48), всего редактировалось 3 раз(а)

nemos Пол:Муж

31-Авг-2014 21:08

Небольшие проблемы с изображением и звуком. Увы сделать ничего не смог так вещал канал. Извините.

Яндекс.Метрика powered by Sphinx


В Н И М А Н И Е
Сайт не распространяет и не хранит электронные версии произведений, а лишь бесплатно и без коммерческой выгоды (не требуя взамен платы,
SMS и т.д.) предоставляет доступ к создаваемому пользователями каталогу ссылок на торрент-файлы, которые содержат только списки хеш-сумм.
Убедительная просьба с жалобами обращаться напрямую к пользователю, разместившему торрент файл.

Вверх