Loading...
Error

Миссия «Серенити» / Serenity (Джосс Уидон / Joss Whedon) [2005 г., фантастика, боевик, триллер, приключения, BDRip] Dub HQ Underverse

Статистика раздачи
Размер:  2,17 GB   |    Зарегистрирован:  2 года 3 месяца   |    Скачан:  62 раза
Сидов:  1  |  0 KB/s  ]   Личеров:  0  |  0 KB/s  ]

* - сиды/пиры с внешних источников

   
 
Автор Сообщение

HQ Underverse 

28-Авг-2014 17:38

Миссия «Серенити» / Serenity


Год выпуска: 2005
Жанр: фантастика, боевик, триллер, приключения
Страна: США
Режиссер: Джосс Уидон / Joss Whedon
В ролях: Нэйтан Филлион, Джина Торрес, Алан Тьюдик, Морена Баккарин, Адам Болдуин, Джуэл Стэйт, Шон Маэр, Саммер Глау, Рон Гласс, Чиветель Эджиофор
Сюжет фильма:
Космический «морской волк» и ветеран Гражданской Галактической войны Малькольм «Мэл» Рейнольдс — теперь всего лишь капитан транспортного корабля. Когда они взяли на борт пассажиров — молодого доктора и его странную сестру с телепатическими способностями, ни он, ни его товарищи не предполагали, в какую историю ввяжутся. Спасаясь сразу от нескольких могущественных врагов — и от военных сил тоталитарного Вселенского Альянса, и от ужасных каннибалов Жнецов, команда корабля даже не догадывалась, какая угроза скрывается на борту «Серенити».

  • Мировая премьера: 22 августа 2005
  • Российская премьера: 13 октября 2005


Качество видео: BDRip

Продолжительность: 01:59:02
Формат: avi
Видео: XviD, 720x304, 2217 kbps
Аудио: русский, дублированный [лицензия, R5], AC3 5.1, 384 kbps

Код:

General
Complete name                    : D:\Video\Movies\Releases\Serenity.2005.BDRip.XviD.AC3.Rus.D.HQ.Underverse.avi
Format                           : AVI
Format/Info                      : Audio Video Interleave
Format profile                   : OpenDML
File size                        : 2.17 GiB
Duration                         : 1h 59mn
Overall bit rate                 : 2 613 Kbps
Writing application              : VirtualDubMod 1.5.10.3 | www.virtualdub-fr.org || (build 2550/release)
Writing library                  : VirtualDubMod build 2550/release

Video
ID                               : 0
Format                           : MPEG-4 Visual
Format profile                   : Streaming Video@L1
Format settings, BVOP            : Yes
Format settings, QPel            : No
Format settings, GMC             : No warppoints
Format settings, Matrix          : Custom
Codec ID                         : XVID
Codec ID/Hint                    : XviD
Duration                         : 1h 59mn
Bit rate                         : 2 218 Kbps
Width                            : 720 pixels
Height                           : 304 pixels
Display aspect ratio             : 2.35
Frame rate                       : 23.976 fps
Resolution                       : 24 bits
Colorimetry                      : 4:2:0
Scan type                        : Progressive
Bits/(Pixel*Frame)               : 0.423
Stream size                      : 1.84 GiB (85%)
Writing library                  : XviD 64

Audio
ID                               : 1
Format                           : AC-3
Format/Info                      : Audio Coding 3
Codec ID                         : 2000
Duration                         : 1h 58mn
Bit rate mode                    : Constant
Bit rate                         : 384 Kbps
Channel(s)                       : 6 channels
Channel positions                : Front: L C R, Surround: L R, LFE
Sampling rate                    : 48.0 KHz
Stream size                      : 327 MiB (15%)
Alignment                        : Split accross interleaves
Interleave, duration             : 42 ms (1.00 video frame)
Interleave, preload duration     : 500 ms
Title                            : Russian Dub (R5)

Семпл: http://multi-up.com/995317

Релиз группы:

picpicpic
Для увеличения картинки щелкните мышкой по превью

Этот торрент недоступен для скачивания без регистрации, однако доступен по публичной magnet-ссылке (источники с публичных трекеров). Перед использованием ссылки прочтите, пожалуйста Пользовательское соглашение, а также как можно дольше оставайтесь на раздаче! Для того, чтобы скачать сам торрент-файл (который видит больше источников), а также для того, чтобы поблагодарить релизера, вам необходимо зарегистрироваться. Если регистрироваться лень - вы можете также попробовать скачать релиз по нашим партнерским ссылкам ниже.

[underverse.su].t43334.torrent
Трекер: Зарегистрирован   [ 29.08.2014 08:24 ]  

Статус: проверено (by Паукан at 29.08.2014 16:34)
Поблагодарили: 2 человека
Тип торрента: публичный - доступные источники с открытых трекеров: 
Размер: 2,17 GB (занимает 1/2 DVDR, для записи нужно 1 болванка DVDR/RW)
 
 
Похожие темы
Форум Тема Автор Торрент Отв. Посл. сооб.
Зарубежное кино [DVDRip, Low-Res HDRip, и т.д.] Миссия «Серенити» / Serenity (Джосс Уидон / Joss Whedon) [2005 г., фантастика, боевик, триллер, приключения, BDRip] Dub 90ytr90
110 | 2

0 | 280

13

31.01.2015 21:57

Зарубежное кино [HDDVDRip / BDRip / WEB-DL / HDTV 1080/720р] Миссия «Серенити» / Serenity (Джосс Уидон / Joss Whedon) [2005 г., фантастика, боевик, триллер, приключения, BDRip 720p] Dub + Sub (Rus, Eng) 90ytr90
23 | 1

0 | 450

14

31.01.2015 22:40

Зарубежное кино [HDDVDRip / BDRip / WEB-DL / HDTV 1080/720р] Миссия «Серенити» / Serenity (Джосс Уидон / Joss Whedon) [2005 г., фантастика, боевик, триллер, приключения, BDRip 720p] Dub + DVO (Tycoon) + Original (Eng) + Sub (Rus, Eng) 90ytr90
5 | 0

0 | 366

15

02.02.2015 18:05

* Архив Миссия «Серенити» / Serenity (Джосс Уидон) [2005 г., фантастика, боевик, триллер, приключения, HD DVDRip] NMZ

1 | 746

29.08.2010 23:52



Последний раз редактировалось: HQ Underverse (29.08.2014 08:26), всего редактировалось 1 раз

29-Авг-2014 08:24

Топик был перенесен из форума Анонсы группы HQ Underverse в форум Зарубежное кино HQ


HQ Underverse
 

Яндекс.Метрика powered by Sphinx


В Н И М А Н И Е
Сайт не распространяет и не хранит электронные версии произведений, а лишь бесплатно и без коммерческой выгоды (не требуя взамен платы,
SMS и т.д.) предоставляет доступ к создаваемому пользователями каталогу ссылок на торрент-файлы, которые содержат только списки хеш-сумм.
Убедительная просьба с жалобами обращаться напрямую к пользователю, разместившему торрент файл.

Вверх