Loading...
Error

Новый Человек-паук: Высокое напряжение / The Amazing Spider-Man 2: Rise of Electro (Марк Уэбб) [2014 г., фэнтези, боевик, приключения, BDRip] Dub + Original + Sub(Rus,Eng) HQ Underverse

Статистика раздачи
Размер:  2,17 GB   |    Зарегистрирован:  2 года 3 месяца   |    Скачан:  28 раз
Сидов:  1  |  0 KB/s  ]   Личеров:  0  |  0 KB/s  ]

* - сиды/пиры с внешних источников

   
 
Автор Сообщение

HQ Underverse 

28-Авг-2014 09:47

Новый Человек-паук: Высокое напряжение / The Amazing Spider-Man 2: Rise of Electro


Год выпуска: 2014
Жанр: фэнтези, боевик, приключения
Страна: США
Режиссер: Марк Уэбб
В ролях: Эндрю Гарфилд, Эмма Стоун, Джейми Фокс, Дэйн ДеХаан, Салли Филд, Колм Фиор, Фелисити Джонс, Пол Джаматти, Мартон Чокаш, Кэмпбелл Скотт
Сюжет фильма:
Питер Паркер под маской Человека-паука по-прежнему спасает мир от злодеев и преступников, а свободное время проводит со своей возлюбленной Гвен, но школьная пора близится к концу, и впереди героев ждет взрослая жизнь. Питер помнит о том, что дал отцу Гвен слово навсегда уйти из жизни девушки, тем самым больше не подвергая ее опасности. Однако сдержать это обещание не так просто. Судьба готовит Питеру сюрпризы: на его пути появится новый противник — Электро, а также ему будет суждено вновь встретиться с давним приятелем Гарри Озборном и узнать много нового о прошлом своей семьи.

  • Мировая премьера: 10 апреля 2014
  • Российская премьера: 24 апреля 2014, «WDSSPR» 3D

/
Качество видео: BDRip

Продолжительность: 02:21:34
Формат: avi
Видео: XviD, 720x304, 1803 kbps
Аудио #1: русский, дублированный [лицензия], AC3 5.1, 384 kbps
Аудио #2: английский, оригинал, AC3 5.1, 384 kbps (отдельным файлом: здесь)
Субтитры #1: внешние, SRT, русский
Субтитры #2: внешние, SRT, русский (форсированные)
Субтитры #3: внешние, SRT, английский

Код:

General
Complete name                    : Y:\Человек паук высокое напряжение\The.Amazing.Spider.Man.2.Rise.of.Electro.2014.BDRip.XviD.AC3.Rus.D.HQ.Underverse.avi
Format                           : AVI
Format/Info                      : Audio Video Interleave
Format profile                   : OpenDML
File size                        : 2.17 GiB
Duration                         : 2h 21mn
Overall bit rate                 : 2 199 Kbps
Writing application              : VirtualDubMod 1.5.10.3 | www.virtualdub-fr.org || (build 2550/release)
Writing library                  : VirtualDubMod build 2550/release

Video
ID                               : 0
Format                           : MPEG-4 Visual
Format profile                   : Streaming Video@L1
Format settings, BVOP            : Yes
Format settings, QPel            : No
Format settings, GMC             : No warppoints
Format settings, Matrix          : Custom
Codec ID                         : XVID
Codec ID/Hint                    : XviD
Duration                         : 2h 21mn
Bit rate                         : 1 803 Kbps
Width                            : 720 pixels
Height                           : 304 pixels
Display aspect ratio             : 2.35
Frame rate                       : 23.976 fps
Resolution                       : 24 bits
Colorimetry                      : 4:2:0
Scan type                        : Progressive
Bits/(Pixel*Frame)               : 0.344
Stream size                      : 1.78 GiB (82%)
Writing library                  : XviD 64

Audio
ID                               : 1
Format                           : AC-3
Format/Info                      : Audio Coding 3
Codec ID                         : 2000
Duration                         : 2h 21mn
Bit rate mode                    : Constant
Bit rate                         : 384 Kbps
Channel(s)                       : 6 channels
Channel positions                : Front: L C R, Surround: L R, LFE
Sampling rate                    : 48.0 KHz
Stream size                      : 389 MiB (17%)
Alignment                        : Split accross interleaves
Interleave, duration             : 42 ms (1.00 video frame)
Interleave, preload duration     : 500 ms

General
Complete name                    : Y:\Человек паук высокое напряжение\The.Amazing.Spider.Man.2.Rise.of.Electro.2014.BDRip.XviD.AC3.Rus.D.HQ.Underverse.ENG.ac3
Format                           : AC-3
Format/Info                      : Audio Coding 3
File size                        : 389 MiB
Duration                         : 2h 21mn
Overall bit rate                 : 384 Kbps

Audio
Format                           : AC-3
Format/Info                      : Audio Coding 3
Duration                         : 2h 21mn
Bit rate mode                    : Constant
Bit rate                         : 384 Kbps
Channel(s)                       : 6 channels
Channel positions                : Front: L C R, Surround: L R, LFE
Sampling rate                    : 48.0 KHz
Stream size                      : 389 MiB (100%)

Релиз группы:

picpicpic
Для увеличения картинки щелкните мышкой по превью

Этот торрент недоступен для скачивания без регистрации, однако доступен по публичной magnet-ссылке (источники с публичных трекеров). Перед использованием ссылки прочтите, пожалуйста Пользовательское соглашение, а также как можно дольше оставайтесь на раздаче! Для того, чтобы скачать сам торрент-файл (который видит больше источников), а также для того, чтобы поблагодарить релизера, вам необходимо зарегистрироваться. Если регистрироваться лень - вы можете также попробовать скачать релиз по нашим партнерским ссылкам ниже.

[underverse.su].t43313.torrent
Трекер: Зарегистрирован   [ 28.08.2014 09:47 ]  

Статус: проверено (by HQ Underverse at 28.08.2014 09:47)
Поблагодарили: 2 человека
Тип торрента: публичный - доступные источники с открытых трекеров: 
Размер: 2,17 GB (занимает 1/2 DVDR, для записи нужно 1 болванка DVDR/RW)
 
 
Похожие темы
Форум Тема Автор Торрент Отв. Посл. сооб.
Зарубежное кино [DVDRip, Low-Res HDRip, и т.д.] Новый Человек-паук / The Amazing Spider-Man (Марк Уэбб ) [2012 г., приключения, фэнтези , DVDRip] Dub P.O.C.O.X.A
1 | 0

0 | 1079

134

18.10.2012 16:42

Зарубежное кино [DVDRip, Low-Res HDRip, и т.д.] Новый Человек-паук / The Amazing Spider-Man (Марк Уэбб) [2012 г., фантастика, боевик, приключения, DVDRip-AVC] Dub + Original Garnett
0 | 0

0 | 918

8

21.10.2012 16:50

Зарубежное кино [DVDRip, Low-Res HDRip, и т.д.] Новый Человек-паук / The Amazing Spider-Man (Марк Уэбб) [2012 г., фантастика, боевик, приключения, DVDRip] Dub + Original Garnett
0 | 0

4 | 706

25

22.10.2012 15:47

Зарубежное кино [DVDRip, Low-Res HDRip, и т.д.] Новый Человек-паук / The Amazing Spider-Man (Марк Уэбб) [2012 г., фантастика, боевик, приключения, HDRip] Dub [лицензия] RG NewCinema
0 | 0

1 | 1573

166

29.10.2012 03:53

Зарубежное кино [DVDRip, Low-Res HDRip, и т.д.] Новый Человек-паук / The Amazing Spider-Man (Марк Уэбб / Marc Webb) [2012 г., боевик, триллер, приключения, BDRip] Dub Gaarochi
0 | 0

0 | 1255

26

04.04.2013 15:46

Зарубежное кино [DVDRip, Low-Res HDRip, и т.д.] Новый Человек-паук: Высокое напряжение / The Amazing Spider-Man 2 (Марк Уэбб / Marc Webb) [2014 г., фэнтези, боевик, приключения, комикс, супергерой, BDRip] Dub 90ytr90
2 | 0

0 | 648

15

13.08.2014 09:53

Зарубежное кино [DVDRip, Low-Res HDRip, и т.д.] Новый Человек-паук: Высокое напряжение / The Amazing Spider-Man 2 (Марк Уэбб / Marc Webb) [2014 г., фэнтези, боевик, приключения, комикс, супергерой, HDRip] Dub 90ytr90
352 | 2

0 | 1003

62

14.08.2014 07:15

Зарубежное кино [DVDRip, Low-Res HDRip, и т.д.] Новый Человек-паук: Высокое напряжение / The Amazing Spider-Man 2 (Марк Уэбб / Marc Webb) [2014 г., фэнтези, боевик, приключения, BDRip] Dub + Original (Eng) 90ytr90
2 | 0

0 | 767

12

14.08.2014 07:49

Зарубежное кино [DVDRip, Low-Res HDRip, и т.д.] Новый Человек-паук: Высокое напряжение / The Amazing Spider-Man 2 (Марк Уэбб / Marc Webb) [2014 г., фэнтези, боевик, приключения, BDRip-AVC] Dub + Original (Eng) + Sub (Rus, Eng) 90ytr90
0 | 0

0 | 843

51

14.08.2014 11:48

Зарубежное кино HQ Новый Человек-паук / The Amazing Spider-Man (Марк Уэбб) [2012 г., фантастика, боевик, приключения, HDRip] Dub (Rus,Ukr)+ Original + Sub (Rus,Eng) HQ Underverse HQ Underverse
0 | 0

2 | 2000

69

12.11.2012 21:14


Яндекс.Метрика powered by Sphinx


В Н И М А Н И Е
Сайт не распространяет и не хранит электронные версии произведений, а лишь бесплатно и без коммерческой выгоды (не требуя взамен платы,
SMS и т.д.) предоставляет доступ к создаваемому пользователями каталогу ссылок на торрент-файлы, которые содержат только списки хеш-сумм.
Убедительная просьба с жалобами обращаться напрямую к пользователю, разместившему торрент файл.

Вверх