Loading...
Error

Узнай меня, если сможешь [01-32 из 32] ( Алексей Гусев) [2014 г., Oстросюжетная мелодрама, SatRip]

Статистика раздачи
Размер:  15,64 GB   |    Зарегистрирован:  2 года 3 месяца   |    Скачан:  16 раз
Сидов:  1  |  36 KB/s  ]   Личеров:  0  |  0 KB/s  ]

* - сиды/пиры с внешних источников

   
 
Автор Сообщение

konopic Пол:Муж

20-Авг-2014 13:58

Узнай меня, если сможешь


Год выпуска: 2014
Жанр: Oстросюжетная мелодрама
Страна: Россия
Режиссер: Алексей Гусев
В ролях: Иван Стебунов, Евгения Лоза, Ярослав Жалнин, Ирина Розанова, Борис Щербаков, Юрий Стоянов, Сергей Жигунов, Сергей Калантай, Сергей Перегудов, Тимур Ефременков, Анна Арефьева (II), Дмитрий Никонов, Юрий Кузнецов, Костя Чернокрылюк
Сюжет фильма:
Молодой парень Илья Авдеев влюблен в девушку Алису. Ее отец заставляет дочь кокетничать с состоятельными мужчинами, а потом грозится засадить ухажеров в тюрьму за оскорбление несовершеннолетней и вымогает у них деньги за молчание. Алиса идет на поводу у отца из-за больной лейкемией сестры. Илья тем временем сам попадает за решетку по ложному обвинению в убийстве охранника и ограблении казино.В тюрьме по официальной версии Авдеев погибает. Но на самом деле с новым, после пластической операции, лицом выходит на свободу. Теперь его зовут Никита Громов. Под свою опеку его берет криминальный авторитет Роман Архипов. Парень нужен Архипову как орудие мести, поскольку ограбленное казино принадлежало ему. Да и сам без вины виноватый парень жаждет мести. К тому же, пока он был в тюрьме его любимая Алиса вышла замуж за другого...


Качество видео: SatRip

Продолжительность: 32 x ~ 00:44:00
Формат: AVI
Видео: XviD, ~ 1450 Кбит/с, 720х384
Аудио: MP3, 2 ch, 192 Кбит/с

Код:

Общее
Полное имя                               : D:\Фильмы\Uznaj.menia.esli.smozesh.2014..SATRip.Files-x.GeneralFilm\01.Uznaj.menia.esli.smozesh.2014..SATRip.Files-x.GeneralFilm.avi
Формат                                   : AVI
Формат/Информация                        : Audio Video Interleave
Размер файла                             : 501 Мбайт
Продолжительность                        : 43 м.
Общий поток                              : 1596 Кбит/сек
Программа кодирования                    : VirtualDubModRus 1.5.10.2 (build 2542/release)
Библиотека кодирования                   : VirtualDubMod build 2542/release

Видео
Идентификатор                            : 0
Формат                                   : MPEG-4 Visual
Профиль формата                          : Advanced Simple@L5
Параметр BVOP формата                    : 1
Параметр QPel формата                    : Нет
Параметр GMC формата                     : Без точки перехода
Параметр матрицы формата                 : Выборочная
Идентификатор кодека                     : XVID
Идентификатор кодека/Подсказка           : XviD
Продолжительность                        : 43 м.
Битрейт                                  : 1394 Кбит/сек
Ширина                                   : 720 пикселей
Высота                                   : 384 пикселя
Соотношение сторон                       : 1,85:1
Частота кадров                           : 25,000 кадров/сек
Цветовое пространство                    : YUV
Субдискретизация насыщенности            : 4:2:0
Битовая глубина                          : 8 бит
Тип развёртки                            : Прогрессивная
Метод сжатия                             : С потерями
Бит/(Пиксели*Кадры)                      : 0.202
Размер потока                            : 437 Мбайт (87%)
Библиотека кодирования                   : XviD 73

Аудио
Идентификатор                            : 1
Формат                                   : MPEG Audio
Версия формата                           : Version 1
Профиль формата                          : Layer 3
Идентификатор кодека                     : 55
Идентификатор кодека/Подсказка           : MP3
Продолжительность                        : 43 м.
Вид битрейта                             : Постоянный
Битрейт                                  : 192 Кбит/сек
Каналы                                   : 2 канала
Частота                                  : 48,0 КГц
Метод сжатия                             : С потерями
Размер потока                            : 60,2 Мбайт (12%)
Выравнивание                             : Соединение по промежуткам
Продолжительность промежутка             : 40  мс. (1,00 видеокадр)
Время предзагрузки промежутка            : 504  мс.
Библиотека кодирования                   : LAME3.99r
Настройки программы                      : -m s -V 4 -q 2 -lowpass 18.6 -b 192

picpicpicpicpicpic
Для увеличения картинки щелкните мышкой по превью

Этот торрент недоступен для скачивания без регистрации, однако доступен по публичной magnet-ссылке (источники с публичных трекеров). Перед использованием ссылки прочтите, пожалуйста Пользовательское соглашение, а также как можно дольше оставайтесь на раздаче! Для того, чтобы скачать сам торрент-файл (который видит больше источников), а также для того, чтобы поблагодарить релизера, вам необходимо зарегистрироваться. Если регистрироваться лень - вы можете также попробовать скачать релиз по нашим партнерским ссылкам ниже.

[underverse.su].t43021.torrent
Трекер: Зарегистрирован   [ 20.08.2014 13:58 ]  

Статус: проверено (by Ведьмочка at 20.08.2014 14:39)
Поблагодарили: 3 человека
Тип торрента: публичный - доступные источники с открытых трекеров: 
Размер: 15,64 GB (занимает 3,57 DVDR, для записи нужно 4 болванки DVDR/RW)
 
 

Яндекс.Метрика powered by Sphinx


В Н И М А Н И Е
Сайт не распространяет и не хранит электронные версии произведений, а лишь бесплатно и без коммерческой выгоды (не требуя взамен платы,
SMS и т.д.) предоставляет доступ к создаваемому пользователями каталогу ссылок на торрент-файлы, которые содержат только списки хеш-сумм.
Убедительная просьба с жалобами обращаться напрямую к пользователю, разместившему торрент файл.

Вверх