Loading...
Error

Разрушитель / Demolition Man (Марко Брамбилла / Marco Brambilla) [1993 г., фантастика, боевик, триллер, криминал, BDRip] Dub HQ Underverse

Статистика раздачи
Размер:  2,17 GB   |    Зарегистрирован:  2 года 3 месяца   |    Скачан:  17 раз
Сидов:  1  |  0 KB/s  ]   Личеров:  0  |  0 KB/s  ]

* - сиды/пиры с внешних источников

   
 
Автор Сообщение

HQ Underverse 

20-Авг-2014 12:14

Разрушитель / Demolition Man


Год выпуска: 1993
Жанр: фантастика, боевик, триллер, криминал
Страна: США
Режиссер: Марко Брамбилла / Marco Brambilla
В ролях: Сильвестр Сталлоне, Уэсли Снайпс, Сандра Буллок, Найджел Хоторн, Бенджамин Брэтт, Боб Гантон, Гленн Шэдикс, Дэнис Лири, Гранд Л. Буш, Пэт Скиппер
Сюжет фильма:
В 2032 году в крио-тюрьме после 35-летней заморозки пробуждается один из самых опасных преступников Саймон Феникс и решает взять приступом спокойный, свободный от всякого насилия Сан-Анджелес.

Неспособные справиться с жестокими повадками 1990-х годов, свойственными Фениксу, официальные власти ищут полицейского тех лет, который смог бы одержать верх над преступником 90-х. Для этого они размораживают сержанта Джона Спартана, несправедливо осужденного на срок в крио-тюрьме за его последнюю схватку с Фениксом.

  • Мировая премьера: 7 октября 1993


Качество видео: BDRip

Продолжительность: 01:55:02
Формат: avi
Видео: XviD, 720x304, 2244 kbps
Аудио: русский, дублированный [лицензия], AC3 5.1, 448 kbps

Код:

General
Complete name                    : D:\Video\Movies\Releases\Demolition.Man.1993.BDRip.XviD.AC3.Rus.D.HQ.Underverse.avi
Format                           : AVI
Format/Info                      : Audio Video Interleave
Format profile                   : OpenDML
File size                        : 2.17 GiB
Duration                         : 1h 55mn
Overall bit rate                 : 2 704 Kbps
Writing application              : VirtualDubMod 1.5.10.3 | www.virtualdub-fr.org || (build 2550/release)
Writing library                  : VirtualDubMod build 2550/release

Video
ID                               : 0
Format                           : MPEG-4 Visual
Format profile                   : Streaming Video@L1
Format settings, BVOP            : Yes
Format settings, QPel            : No
Format settings, GMC             : No warppoints
Format settings, Matrix          : Custom
Codec ID                         : XVID
Codec ID/Hint                    : XviD
Duration                         : 1h 55mn
Bit rate                         : 2 244 Kbps
Width                            : 720 pixels
Height                           : 304 pixels
Display aspect ratio             : 2.35
Frame rate                       : 23.976 fps
Resolution                       : 24 bits
Colorimetry                      : 4:2:0
Scan type                        : Progressive
Bits/(Pixel*Frame)               : 0.428
Stream size                      : 1.80 GiB (83%)
Writing library                  : XviD 64

Audio
ID                               : 1
Format                           : AC-3
Format/Info                      : Audio Coding 3
Codec ID                         : 2000
Duration                         : 1h 55mn
Bit rate mode                    : Constant
Bit rate                         : 448 Kbps
Channel(s)                       : 6 channels
Channel positions                : Front: L C R, Surround: L R, LFE
Sampling rate                    : 48.0 KHz
Stream size                      : 369 MiB (17%)
Alignment                        : Split accross interleaves
Interleave, duration             : 42 ms (1.00 video frame)
Interleave, preload duration     : 500 ms
Title                            : Russian Dub (BD CEE)

Семпл: http://multi-up.com/993698

Релиз группы:

picpicpic
Для увеличения картинки щелкните мышкой по превью

Этот торрент недоступен для скачивания без регистрации, однако доступен по публичной magnet-ссылке (источники с публичных трекеров). Перед использованием ссылки прочтите, пожалуйста Пользовательское соглашение, а также как можно дольше оставайтесь на раздаче! Для того, чтобы скачать сам торрент-файл (который видит больше источников), а также для того, чтобы поблагодарить релизера, вам необходимо зарегистрироваться. Если регистрироваться лень - вы можете также попробовать скачать релиз по нашим партнерским ссылкам ниже.

[underverse.su].t43019.torrent
Трекер: Зарегистрирован   [ 20.08.2014 12:14 ]  

Статус: проверено (by Паукан at 22.08.2014 14:51)
Поблагодарили: пока никто не поблагодарил...
Тип торрента: публичный - доступные источники с открытых трекеров: 
Размер: 2,17 GB (занимает 1/2 DVDR, для записи нужно 1 болванка DVDR/RW)
 
 
Похожие темы
Форум Тема Автор Торрент Отв. Посл. сооб.
Зарубежное кино [DVDRip, Low-Res HDRip, и т.д.] Разрушители / Wreckers (Дикшина Худ) [2011 г., драма, WEB-DLRip] VO + Original Паукан
2 | 0

0 | 836

11

09.07.2013 10:44

Зарубежное кино [DVDRip, Low-Res HDRip, и т.д.] Разрушитель / Demolition Man (Марко Брамбилла) [1993 г., фантастика, боевик, триллер, криминал, HDRip] Dub RG NewCinema
1 | 0

0 | 820

11

13.12.2012 18:09

Зарубежное кино [DVDRip, Low-Res HDRip, и т.д.] Разрушитель / The Demolisher (Филип Каррер) [2015 г., ужасы, боевик, триллер, HDRip] VO makkol
39 | 1

0 | 765

23

02.04.2016 22:53

Аниме Разрушитель Садамицу / Hakaima Sadamitsu / Sadamitsu the Destroyer [1-10 из 10] (Охата Койти) [RUS (int), JAP, SUB] [2001, приключения, фантастика, меха, DVDrip] Hitman
0 | 0

0 | 498

1

26.01.2015 15:03

Discovery Разрушители легенд / MythBusters Сезон 08 Серии 116-132 [2009 г., Сериал, Документальное, Наука и техника, Повод задуматься, Для всех, TVRip] MVO tom.jerry
0 | 0

0 | 7279

0

04.06.2013 14:17

Зарубежное кино [HDDVDRip / BDRip / WEB-DL / HDTV 1080/720р] Разрушитель / Demolition Man (Марко Брамбилла) [1993 г., Фантастика, Боевик, Криминал, BDRip 720p] Dub + Original Чертёнок
2 | 0

1 | 1037

14

16.03.2013 05:40

Зарубежное кино [HDDVDRip / BDRip / WEB-DL / HDTV 1080/720р] Разрушитель / Demolition Man (Марко Брамбилла) [1993 г., фантастика, боевик, триллер, криминал, BDRip 720p] Dub (RUS) + Original (ENG) + Subs (RUS, ENG) / 60 FPS slaventi-69
1 | 0

0 | 841

4

14.05.2015 10:25

Зарубежное кино [HDDVDRip / BDRip / WEB-DL / HDTV 1080/720р] Разрушитель / The Demolisher (Филип Каррер) [2015 г., ужасы, боевик, триллер, BDRip 720p] VO + Original makkol
9 | 0

0 | 827

12

02.04.2016 23:00

Документальное кино [HDDVDRip / BDRip / WEB-DL / HDTV 1080/720р] Разрушители мифов / легенд (серии 70-76, 84-89, 91-101, 103-109, 111-114, 116-127, 129, 131-139, 141, 142, 144, s10) / MythBusters (Mark Barlin, Andrew Farrell) [2008 г., научно-популярный, HDTVrip... uzi2009
0 | 0

0 | 1094

7

11.03.2014 17:53

* Архив Разрушители пословиц (05 выпуск) [2010 г., ТВ-Шоу, SatRip] KinoGraf

1 | 1192

30.08.2010 00:06


Яндекс.Метрика powered by Sphinx


В Н И М А Н И Е
Сайт не распространяет и не хранит электронные версии произведений, а лишь бесплатно и без коммерческой выгоды (не требуя взамен платы,
SMS и т.д.) предоставляет доступ к создаваемому пользователями каталогу ссылок на торрент-файлы, которые содержат только списки хеш-сумм.
Убедительная просьба с жалобами обращаться напрямую к пользователю, разместившему торрент файл.

Вверх